вход на сайт

Имя пользователя :
Пароль :

Восстановление пароля Регистрация
Мгновение любви / Here (Браден Кинг, Драма, мелодрама, приключения, 2011) [DVDRip, Профессиональный (многоголосый, закадровый)]
Рейтинг:
(голосов: 1)



[img]{THEME}/images/logopost.png[/img]



Мгновение любви | Here

Год выпуска: 2011
Страна: США
Производство: Lion & Wheel, Parts and Labor, Truckstop Media
Жанр: Драма, мелодрама, приключения

Режиссёр: Браден Кинг
В ролях: Бен Фостер, Питер Койот, Лубна Азабаль, Алла Саакян, Гарик Чепчян, Нарек Нерсисян, Давит Манукян, Армен Харапетян, Ник Вагнер

Перевод: Профессиональный (многоголосый закадровый) [Лицензия]
Субтитры:Нет

Описание
Картограф Уилл Шепард отправляется в путь для своей последней работы: создать новый, более точный спутниковый обзор Армении. Во время его назначения, у него завязываются отношения с эмигрировавшей армянской девушкой-фотографом.
Доп. информация
Премьеры ▼премьера (мир) 3 июля 2011
премьера (РФ) 28 июня 2012, «Премиум Фильм»
релиз на DVD 26 июля 2012, «CP Дистрибуция»
Mediainfo ▼TextGeneral
Complete name : /Torrents/home/dance/data/Mgnovenie_lyubvi_DVDRip_745.avi
Format : AVI
Format/Info : Audio Video Interleave
File size : 744 MiB
Duration : 2h 0mn
Overall bit rate : 866 Kbps
Writing application : VirtualDubMod 1.5.10.2 (build 2540/release)
Writing library : VirtualDubMod build 2540/release

Video
ID : 0
Format : MPEG-4 Visual
Format profile : Advanced [email protected]
Format settings, BVOP : 1
Format settings, QPel : No
Format settings, GMC : No warppoints
Format settings, Matrix : Custom
Codec ID : XVID
Codec ID/Hint : XviD
Duration : 2h 0mn
Bit rate : 728 Kbps
Width : 688 pixels
Height : 288 pixels
Display aspect ratio : 2.40:1
Frame rate : 25.000 fps
Color space : YUV
Chroma subsampling : 4:2:0
Bit depth : 8 bits
Scan type : Progressive
Compression mode : Lossy
Bits/(Pixel*Frame) : 0.147
Stream size : 626 MiB (84%)
Writing library : XviD 1.2.1 (UTC 2008-12-04)

Audio
ID : 1
Format : MPEG Audio
Format version : Version 1
Format profile : Layer 3
Codec ID : 55
Codec ID/Hint : MP3
Duration : 2h 0mn
Bit rate mode : Constant
Bit rate : 128 Kbps
Channel(s) : 2 channels
Sampling rate : 48.0 KHz
Compression mode : Lossy
Stream size : 110 MiB (15%)
Alignment : Aligned on interleaves
Interleave, duration : 40 ms (1.00 video frame)
Interleave, preload duration : 504 ms
Writing library : LAME3.97
Encoding settings : -m s -V 4 -q 2 -lowpass 17 -b 128

Тех. данные
Качество: DVDRip
Продолжительность: 02:00:06

Формат: AVI
Видео кодек: XviD
Аудио кодек: MP3
Видео: 688x288 (2.39:1), 25 fps, XviD build 50 ~728 kbps avg, 0.15 bit/pixel
Аудио: 48 kHz, MPEG Layer 3, 2 ch, ~128.00 kbps avg |Многоголосый закадровый|


|Cтол заказов| Наши раздачи| Набор в группу| Сказать спасибо|





b287c56023a60d6b5befa5752f7d158c0c8d993aМгновение любви / Here (Браден Кинг, Драма, мелодрама, приключения, 2011) [DVDRip, Профессиональный (многоголосый, закадровый)] Мгновение любви / Here (Браден Кинг, Драма, мелодрама, приключения, 2011) [DVDRip, Профессиональный (многоголосый, закадровый)] " />

Аплоадер: Админ, дата: 30-07-2012, 16:43, торрент скачан: 359 раз

Понравилась раздача? Посмотрите эти:
  • Непристойная комедия / InAPPropriate Comedy (Винс Оффер, комедия, 2013) [DV ...
  • Мэрайа Мунди и шкатулка Мидаса / The Adventurer: The Curse of the Midas Box ...
  • Альбатрос / Albatross (Найал МакКормик, Драма, 2011) [DVDRip, Профессиональ ...
  • Лучший стрелок / Top Gun (Тони Скотт, боевик, драма, мелодрама, 1986) [BDRi ...
  • Плохая актриса / Bad Actress (Роберт Ли Кинг, комедия, 2011) [DVDRip, Профе ...
  • Мгновение любви / Here (Браден Кинг, Драма, мелодрама, приключения, 2011) [ ...
  • Все песни только о любви / Les Chansons d amour (Кристоф Оноре, драма, 2007 ...
  • Эрик Викинг / Erik the Viking (Терри Джонс, фэнтези, комедия, приключения, ...
  • Мой парень – псих / Silver Linings Playbook (Дэвид О. Расселл, Драма, мелод ...
  • Индиана Джонс: В поисках утраченного ковчега / Indiana Jones and the Raider ...
  • Яркая звезда / Bright Star (Джейн Кэмпион / Jane Campion) [2009, Биографиче ...
  • Семь дней на Земле / Meant to Be (Пол Брюлс, Мелодрама, Комедия, 2010) [DVD ...
  • Миленькие штучки / Les Jolies Choses (Жиль Паке-Бреннер, драма, 2011) [DVDR ...
  • Романтики / The Romantics (Галт Нидерхоффер, Драма, мелодрама, комедия, 201 ...
  • Мгновение любви / Here (Браден Кинг, драма, мелодрама, приключения, 2011) [ ...
  • Мгновение любви / Here (Браден Кинг, драма, мелодрама, приключения, 2011) [ ...
  • Девушки в опасности / Damsels in Distress (Уит Стиллман, драма, мелодрама, ...
  • Глушь / Resurrection County (Matt Zettell, ужасы, триллер, 2008) [DVDRip, П ...
  • Искажение / Skew (Сейв Челенз, ужасы, триллер, 2011) [HDRip, Профессиональн ...
  • Робинзон Крузо / Robinson Crusoe (Род Харди, Джордж Миллер, драма, приключе ...
  • Информация
    Посетители, находящиеся в группе Гости, не могут оставлять комментарии к данной публикации.