вход на сайт

Имя пользователя :
Пароль :

Восстановление пароля Регистрация
Николас Никлби / Nicholas Nickleby (Дуглас МакГрат, Драма, мелодрама, приключения, 2003) [HDTVRip, Профессиональный (многоголосый, закадровый) + Sub]
Рейтинг:
(голосов: 1)



[img]{THEME}/images/logopost.png[/img]



Николас Никлби | Nicholas Nickleby
«Every family needs a hero.»

Год выпуска: 2003
Страна: США Великобритания
Производство: United Artists Film Corporation
Жанр: Драма, мелодрама, приключения

Режиссёр: Дуглас МакГрат / Douglas McGrath
В ролях: Стелла Гонет (Mrs. Nickleby), Эндрю Хавилл (Mr. Nickleby), Генри МакГрат (Child Nicholas Nickleby), Хью Митчел (Boy Nicholas Nickleby), Поппи Роджерс (Child Kate Nickleby), Джесси Лу Робертс (Young Kate Nickleby), Чарли Ханнэм (Nicholas Nickleby), Ромола Гарай (Kate Nickleby), Том Кортни (Newman Noggs), Кристофер Пламмер (Ralph Nickleby), Энн Хэтэуэй (Madeline Bray), Джим Броудбент (Mr. Wackford Squeers)

Перевод: Профессиональный (многоголосый, закадровый)
Субтитры: Английские (*.srt) - отдельно

Описание: Фильм снят по мотивам произведения Чарльза Диккенса. Действие фильма происходит в XIX веке в Англии. Главный герой Николас Никлби, как и его семья, привык вести широкий образ жизни, ни в чем себе не отказывая. Это продолжалось до тех пор, пока отец семейства не умер, оставив семью без средств. Николас вместе с сестрой и матерью переезжает в Лондон и поселяется у дяди Ральфа.

Вскоре они обнаруживают, что дядюшка совсем не питает к ним добрых чувств, а напротив, делает все, чтобы разъединить эту семью. Николаса он отсылает преподавать в школе, управляемой жестоким директором Уэкфордом Сквиерсом. Откуда Николас вскоре бежит вместе с одним из студентов по имени Смайк, стремясь снова вернуться в семью.Дата премьеры (мир): 27 декабря 2002
Качество: HDTVRip | исх. Nicholas.Nickleby.2002.720p.HDTV.x264-Grim
Продолжительность: 02:07:01

Релиз от: &
Автор рипа: encoderrr

Формат: AVI
Видео кодек: XviD build 65
Аудио кодек: AC3 Dolby Digital
Видео: 672x288 (2.33:1), 25 fps, XviD build 65 ~703 kbps avg, 0.14 bit/pixel
Аудио: 44.100 kHz, MPEG Layer 3, 2 ch, ~112.00 kbps avg | Rus - Профессиональный (многоголосый, закадровый)

MediaInfo ▼General
Complete name : D:ФильмыAll FilmsNicholas.Nickleby.2002.HDTVRip.by.encoderrrNicholas.Nickleby.2002.HDTVRip.by.encoderrr.avi
Format : AVI
Format/Info : Audio Video Interleave
File size : 750 MiB
Duration : 2h 7mn
Overall bit rate : 826 Kbps
Writing application : VirtualDubMod 1.5.10.3 | www.virtualdub-fr.org || (build 2550/release)
Writing library : VirtualDubMod build 2550/release
Video
ID : 0
Format : MPEG-4 Visual
Format profile : Advanced [email protected]
Format settings, BVOP : 1
Format settings, QPel : No
Format settings, GMC : No warppoints
Format settings, Matrix : Custom
Codec ID : XVID
Codec ID/Hint : XviD
Duration : 2h 7mn
Bit rate : 704 Kbps
Width : 672 pixels
Height : 288 pixels
Display aspect ratio : 2.35:1
Frame rate : 25.000 fps
Color space : YUV
Chroma subsampling : 4:2:0
Bit depth : 8 bits
Scan type : Progressive
Compression mode : Lossy
Bits/(Pixel*Frame) : 0.145
Stream size : 640 MiB (85%)
Writing library : XviD 65
Audio
ID : 1
Format : MPEG Audio
Format version : Version 1
Format profile : Layer 3
Mode : Joint stereo
Codec ID : 55
Codec ID/Hint : MP3
Duration : 2h 7mn
Bit rate mode : Constant
Bit rate : 112 Kbps
Channel(s) : 2 channels
Sampling rate : 44.1 KHz
Compression mode : Lossy
Stream size : 102 MiB (14%)
Alignment : Split accross interleaves
Interleave, duration : 40 ms (1.00 video frame)
Interleave, preload duration : 500 ms
Writing library : L3.99r
Encoding settings : -m j -V 4 -q 0 -lowpass 15.6 -b 112





1fcae16afd52e8fbc728d8f6ab3adce6e90c790eНиколас Никлби / Nicholas Nickleby (Дуглас МакГрат, Драма, мелодрама, приключения, 2003) [HDTVRip, Профессиональный (многоголосый, закадровый) + Sub] Николас Никлби / Nicholas Nickleby (Дуглас МакГрат, Драма, мелодрама, приключения, 2003) [HDTVRip, Профессиональный (многоголосый, закадровый) + Sub] " />

Аплоадер: Админ, дата: 15-07-2012, 00:50, торрент скачан: 359 раз

Понравилась раздача? Посмотрите эти:
  • Погнали! / Getaway (Кортни Соломон, Боевик,Криминал, 2013) [HDRip, Професси ...
  • Вирус / Flu (Ким Сон Су, Драма, 2013) [HDTVRip, Любительский (двухголосый з ...
  • Мэрайа Мунди и шкатулка Мидаса / The Adventurer: The Curse of the Midas Box ...
  • Берлинское дело / The Berlin File (Рю Сын Ван, Боевик, триллер, драма, 2013 ...
  • Друзья на пять часов / 5 Hour Friends (Тео Дейвис, Драма, Мелодрама, Комеди ...
  • Лучший стрелок / Top Gun (Тони Скотт, боевик, драма, мелодрама, 1986) [BDRi ...
  • Псы войны / The Dogs of War (Джон Ирвин, боевик, драма, приключения, военны ...
  • Без всего / Sin ella (Джордже Колон, Мелодрама, 2010) [HDTVRip , Профессион ...
  • Акулы пера / Soloalbum (Грегор Шнитцлер, мелодрама, комедия, 2003) [BDRip, ...
  • Засну, когда умру / Ill Sleep When Im Dead (Майк Ходжис, триллер, драма, кр ...
  • Засну, когда умру / Ill Sleep When Im Dead (Майк Ходжис, триллер, драма, кр ...
  • Мой парень – псих / Silver Linings Playbook (Дэвид О. Расселл, Драма, мелод ...
  • Папаша / Starbuck (Кен Скотт, Драма, комедия, 2011) [BDRip, Профессиональны ...
  • Романтики / The Romantics (Галт Нидерхоффер, Драма, мелодрама, комедия, 201 ...
  • Николас Никлби / Nicholas Nickleby (Дуглас МакГрат, Драма, мелодрама, прикл ...
  • Мгновение любви / Here (Браден Кинг, Драма, мелодрама, приключения, 2011) [ ...
  • Искажение / Skew (Сейв Челенз, ужасы, триллер, 2011) [HDRip, Профессиональн ...
  • Рука-убийца / Idle Hands (Родмен Флендер,ужасы, триллер, комедия, 1999) [HD ...
  • Камень судьбы / Stone of destiny (Чарльз Мартин Смит, драма, комедия, крими ...
  • Крузо / Crusoe (Калеб Дешанель, Драма, 1988) [HDTVRip, Профессиональный (дв ...
  • Информация
    Посетители, находящиеся в группе Гости, не могут оставлять комментарии к данной публикации.