вход на сайт

Имя пользователя :
Пароль :

Восстановление пароля Регистрация
Николас Никлби / Nicholas Nickleby (Дуглас МакГрат, Драма, мелодрама, приключения, 2003) [HDTVRip, Авторский (одноголосый, закадровый) + Sub]
Рейтинг:
(голосов: 1)



[img]{THEME}/images/logopost.png[/img]



Николас Никлби | Nicholas Nickleby
«Every family needs a hero.»

Год выпуска: 2003
Страна: США Великобритания
Производство: United Artists Film Corporation
Жанр: Драма, мелодрама, приключения

Режиссёр: Дуглас МакГрат / Douglas McGrath
В ролях: Стелла Гонет (Mrs. Nickleby), Эндрю Хавилл (Mr. Nickleby), Генри МакГрат (Child Nicholas Nickleby), Хью Митчел (Boy Nicholas Nickleby), Поппи Роджерс (Child Kate Nickleby), Джесси Лу Робертс (Young Kate Nickleby), Чарли Ханнэм (Nicholas Nickleby), Ромола Гарай (Kate Nickleby), Том Кортни (Newman Noggs), Кристофер Пламмер (Ralph Nickleby), Энн Хэтэуэй (Madeline Bray), Джим Броудбент (Mr. Wackford Squeers)

Перевод: Авторский (одноголосый, закадровый) - А. Рудой
Субтитры: Английские (*.srt) - отдельно

Описание: Фильм снят по мотивам произведения Чарльза Диккенса. Действие фильма происходит в XIX веке в Англии. Главный герой Николас Никлби, как и его семья, привык вести широкий образ жизни, ни в чем себе не отказывая. Это продолжалось до тех пор, пока отец семейства не умер, оставив семью без средств. Николас вместе с сестрой и матерью переезжает в Лондон и поселяется у дяди Ральфа.

Вскоре они обнаруживают, что дядюшка совсем не питает к ним добрых чувств, а напротив, делает все, чтобы разъединить эту семью. Николаса он отсылает преподавать в школе, управляемой жестоким директором Уэкфордом Сквиерсом. Откуда Николас вскоре бежит вместе с одним из студентов по имени Смайк, стремясь снова вернуться в семью.Дата премьеры (мир): 27 декабря 2002
Качество: HDTVRip | исх. Nicholas.Nickleby.2002.720p.HDTV.x264-Grim
Продолжительность: 02:07:01

Релиз от: &
Автор рипа: encoderrr

Формат: AVI
Видео кодек: XviD build 65
Аудио кодек: AC3 Dolby Digital
Видео: 720x304 (2.37:1), 25 fps, XviD build 65 ~1442 kbps avg, 0.26 bit/pixel
Аудио: 48 kHz, AC3 Dolby Digital, 2/0 (L,R) ch, ~192 kbps | Rus - Авторский (одноголосый, закадровый) - А. Рудой

MediaInfo ▼General
Complete name : D:ФильмыAll FilmsNicholas.Nickleby.2002.HDTVRip.1.45.by.encoderrrNicholas.Nickleby.2002.HDTVRip.1.45.by.encoderrr.avi
Format : AVI
Format/Info : Audio Video Interleave
File size : 1.46 GiB
Duration : 2h 7mn
Overall bit rate : 1 644 Kbps
Writing application : VirtualDubMod 1.5.10.3 | www.virtualdub-fr.org || (build 2550/release)
Writing library : VirtualDubMod build 2550/release
Video
ID : 0
Format : MPEG-4 Visual
Format profile : Advanced [email protected]
Format settings, BVOP : 1
Format settings, QPel : No
Format settings, GMC : No warppoints
Format settings, Matrix : Custom
Codec ID : XVID
Codec ID/Hint : XviD
Duration : 2h 7mn
Bit rate : 1 442 Kbps
Width : 720 pixels
Height : 304 pixels
Display aspect ratio : 2.37:1
Frame rate : 25.000 fps
Color space : YUV
Chroma subsampling : 4:2:0
Bit depth : 8 bits
Scan type : Progressive
Compression mode : Lossy
Bits/(Pixel*Frame) : 0.264
Stream size : 1.28 GiB (88%)
Writing library : XviD 65
Audio
ID : 1
Format : AC-3
Format/Info : Audio Coding 3
Mode extension : CM (complete main)
Format settings, Endianness : Big
Codec ID : 2000
Duration : 2h 7mn
Bit rate mode : Constant
Bit rate : 192 Kbps
Channel(s) : 2 channels
Channel positions : Front: L R
Sampling rate : 48.0 KHz
Bit depth : 16 bits
Compression mode : Lossy
Stream size : 174 MiB (12%)
Alignment : Split accross interleaves
Interleave, duration : 40 ms (1.00 video frame)
Interleave, preload duration : 500 ms





73f6faac0ddab33f80c0afe8f287f95fab1d331dНиколас Никлби / Nicholas Nickleby (Дуглас МакГрат, Драма, мелодрама, приключения, 2003) [HDTVRip, Авторский (одноголосый, закадровый) + Sub] Николас Никлби / Nicholas Nickleby (Дуглас МакГрат, Драма, мелодрама, приключения, 2003) [HDTVRip, Авторский (одноголосый, закадровый) + Sub] " />

Аплоадер: Админ, дата: 14-07-2012, 20:24, торрент скачан: 359 раз

Понравилась раздача? Посмотрите эти:
  • Убийство Кеннеди / Killing Kennedy (Нельсон МакКормик, Драма, история, рест ...
  • Вирус / Flu (Ким Сон Су, Драма, 2013) [HDTVRip, Любительский (двухголосый з ...
  • Великий Гэтсби / The Great Gatsby (Баз Лурман, Драма, мелодрама, 2013) [BDR ...
  • Возвращение героя / The Last Stand (Ким Чжи-ун, Боевик, триллер, криминал, ...
  • Мужество / Wymyk (Грег Зглински, драма, 2011) [DVDRip, Любительский (одного ...
  • Неудержимый / Bullet to the Head (Уолтер Хилл, Боевик, триллер, криминал, 2 ...
  • Берлинское дело / The Berlin File (Рю Сын Ван, Боевик, триллер, драма, 2013 ...
  • 23:59 / 23:59 (Гилберт Чан, Ужасы, 2011) [HDRip, Любительский (одноголосый ...
  • МЫ. Верим в любовь / W.E. (Мадонна, Драма, мелодрама, история, 2011) [BDRip ...
  • Невозможное / Lo imposible (Хуан Антонио Байона, Триллер, драма, 2012) [HDR ...
  • Псы войны / The Dogs of War (Джон Ирвин, боевик, драма, приключения, военны ...
  • Тюремщик / Screwed (Рег Тревисс / Reg Traviss, Драма, 2011) [DVDRip , Люби ...
  • Без всего / Sin ella (Джордже Колон, Мелодрама, 2010) [HDTVRip , Профессион ...
  • Фредди против Джейсона / Freddy vs. Jason (Ронни Ю, ужасы, триллер, 2003) [ ...
  • Захват / Carjacked (Джон Бонито, триллер, 2011)[BDRip, Профессиональный (мн ...
  • Обними меня луна / House of Hearts (Omfavn mig mane) (Elisabeth Rygaard, д ...
  • Скуби-Ду: Нападение Пантазаура / Scooby-Doo! Legend of the Phantosaur (Дугл ...
  • Попутчик / The Hitcher (Роберт Хармон, боевик, триллер, криминал, 1986) [DV ...
  • Николас Никлби / Nicholas Nickleby (Дуглас МакГрат, Драма, мелодрама, прикл ...
  • Симона / S1m0ne (Эндрю Никкол, фантастика, фэнтези, драма, комедия, 2002) [ ...
  • Информация
    Посетители, находящиеся в группе Гости, не могут оставлять комментарии к данной публикации.