вход на сайт

Имя пользователя :
Пароль :

Восстановление пароля Регистрация
Романтики / The Romantics (Галт Нидерхоффер, Драма, мелодрама, комедия, 2010) [HDRip, Профессиональный (многоголосый, закадровый)]
Рейтинг:
(голосов: 1)



[img]{THEME}/images/logopost.png[/img]



Романтики / The Romantics


Год выпуска: 2010
Страна: США
Производство: Four of A Kind productions
Жанр: Драма, мелодрама, комедия

Режиссёр: Галт Нидерхоффер
В ролях: Кэти Холмс, Анна Пакуин, Джош Дюамель, Малин Акерман, Джереми Стронг, Кэндис Берген, Адам Броди, Элайджа Вуд, Ребекка Лоуренс, Питер Дж. Роуэн, Дианна Агрон

Перевод: Профессиональный (многоголосый, закадровый)
Субтитры: Нет

Описание: Семеро близких друзей собрались на свадьбу двух из них. Проблемы возникают потому, что между невестой и подружкой невесты существует давняя конкуренция на жениха.Качество: HDRip
Продолжительность: 01:36:40 час
"Media Info" ▼TextC:UsersÍóðáåêDownloadsR0mantiki.2010.P.HDRip.700.avi
General
Complete name : C:UsersÍóðáåêDownloadsR0mantiki.2010.P.HDRip.700.avi
Format : AVI
Format/Info : Audio Video Interleave
File size : 705 MiB
Duration : 1h 36mn
Overall bit rate : 1 019 Kbps
Writing application : VirtualDubMod 1.5.10.3 | www.virtualdub-fr.org || (build 2550/release)
Writing library : VirtualDubMod build 2550/release
Video #0
ID : 0
Format : MPEG-4 Visual
Format profile : Advanced [email protected]
Format settings, BVOP : Yes
Format settings, QPel : No
Format settings, GMC : No warppoints
Format settings, Matrix : Default (H.263)
Codec ID : XVID
Codec ID/Hint : XviD
Duration : 1h 36mn
Bit rate : 882 Kbps
Width : 640 pixels
Height : 352 pixels
Display aspect ratio : 16:9
Frame rate : 23.976 fps
Resolution : 8 bits
Colorimetry : 4:2:0
Scan type : Progressive
Bits/(Pixel*Frame) : 0.163
Stream size : 610 MiB (87%)
Writing library : XviD 58
Audio #1
ID : 1
Format : MPEG Audio
Format version : Version 1
Format profile : Layer 3
Codec ID : 55
Codec ID/Hint : MP3
Duration : 1h 36mn
Bit rate mode : Constant
Bit rate : 128 Kbps
Channel(s) : 2 channels
Sampling rate : 48.0 KHz
Stream size : 88.5 MiB (13%)
Alignment : Aligned on interleaves
Interleave, duration : 42 ms (1.00 video frame)
Interleave, preload duration : 504 ms
Writing library : LAME3.98r
Encoding settings : -m s -V 4 -q 2 -lowpass 17 -b 128
Формат: AVI
Видео кодек: XviD
Аудио кодек: MPEG Layer 3
Видео: 640x352 (1.82:1), 23.976 fps, XviD build 58 ~882 kbps avg, 0.16 bit/pixel
Аудио: MPEG Layer 3, 48 kHz, 2 channels, ~128.00 kbps avg


&nb
401dee42b29330f3b7f1e520d9258f4b7fedf547Романтики / The Romantics (Галт Нидерхоффер, Драма, мелодрама, комедия, 2010) [HDRip, Профессиональный (многоголосый, закадровый)] Романтики / The Romantics (Галт Нидерхоффер, Драма, мелодрама, комедия, 2010) [HDRip, Профессиональный (многоголосый, закадровый)] " />

Аплоадер: Админ, дата: 24-05-2012, 15:44, торрент скачан: 359 раз

Понравилась раздача? Посмотрите эти:
  • Откровение / Vedam (Радха Кришна Джагарламуди, Драма, 2010) [HDRip, Професс ...
  • Погнали! / Getaway (Кортни Соломон, Боевик,Криминал, 2013) [HDRip, Професси ...
  • Решала (Роман Асхаев, Драма,Криминал, 2012) [WEB-DLRip, Не требуется]
  • 12 раундов: Перезагрузка / 12 Rounds: Reloaded (Роэль Рейн, Боевик, 2013) [ ...
  • Магазин самоубийств / Le magasin des suicides (Патрис Леконт, Мультфильм, м ...
  • [EN] Команда: На пути Аллаха / Takiye: Allah yolunda (2010, Бен Вербонг, тр ...
  • Новые парни турбо / New Kids Turbo (Штефен Хаарс, Боевик, комедия, 2010) [H ...
  • Без всего / Sin ella (Джордже Колон, Мелодрама, 2010) [HDTVRip , Профессион ...
  • Мой парень – псих / Silver Linings Playbook (Дэвид О. Расселл, Драма, мелод ...
  • Формула 1 2011 / Этап 17 из 19 / Гран-При Индии / Гонка / Спорт 1 [30.10.20 ...
  • Чемпионат Европы 2012 / Группа D / 1-й тур / Украина - Швеция / Спорт 1 [11 ...
  • Tank Feat. T.I. & Kris Stephens / Compliments [2012, RnB,Hip-Hop, HDRip]
  • Маленький Николя / Le Petit Nicolas ( Лорен Тирар,комедия, семейный,2009 ) ...
  • Яркая звезда / Bright Star (Джейн Кэмпион / Jane Campion) [2009, Биографиче ...
  • Неделя в NBA с В.Гомельским / НТВ+ [28.06.2011, SD, XviD, RU, SAT]
  • Задание / The Task (Алекс Оруэлл, Ужасы, 2010) [HDRip, Профессиональный (мн ...
  • Мистер Ганджубас / Mr. Nice (Бернард Роуз, Драма, комедия, 2010)[HDRip, Про ...
  • Военные игры / War Games: At the End of the Day(Козимо Алема, Триллер, Ужас ...
  • Чемпионат Европы 2012 / Группа B / 1-й тур / Германия - Португалия / Спорт ...
  • Полусвет / Half Light (Крэйг Розенберг, Ужасы, триллер, драма, детектив, 20 ...
  • Замёрзший мир / 2012: Ice Age (Трэвис Форт, фантастика, боевик, 2011) [HDRi ...
  • Мгновение любви / Here (Браден Кинг, Драма, мелодрама, приключения, 2011) [ ...
  • Девушки в опасности / Damsels in Distress (Уит Стиллман, драма, мелодрама, ...
  • Искажение / Skew (Сейв Челенз, ужасы, триллер, 2011) [HDRip, Профессиональн ...
  • Ничего, кроме правды / Nothing But the Truth (Род Лури, триллер, драма, 200 ...
  • Информация
    Посетители, находящиеся в группе Гости, не могут оставлять комментарии к данной публикации.