вход на сайт

Имя пользователя :
Пароль :

Восстановление пароля Регистрация
Рыба моей мечты / Salmon Fishing in the Yemen(Лассе Халльстрём, драма, мелодрама, комедия, 2011) [DVDRip, Профессиональный (многоголосый, закадровый)]
Рейтинг:
(голосов: 1)



[img]{THEME}/images/logopost.png[/img]



Рыба моей мечты / Salmon Fishing in the Yemen
Год выпуска: 2011
Страна: Великобритания
Производство: Kudos Film and Television, BBC Films, Davis Films
Жанр: драма, мелодрама, комедия

Режиссёр: Лассе Халльстрём
В ролях: Юэн МакГрегор, Эмили Блант, Кристин Скотт Томас, Амр Вакид, Катрин Стэдмен, Том Мисон, Рэйчел Стирлинг, Том Бирд, Джилл Бейкер, Конлет Хилл

Перевод: Профессиональный (многоголосый, закадровый)[Лицензия]
Субтитры:нет

Описание
Доктор Альфред Джонс из Лондонского Центра рыболовства получает от некоего таинственного шейха странное предложение: ввести в Йемене спортивные соревнования по ловле лосося. Доктор Джонс отказывается, но абсурдный с научной точки зрения проект попадается на глаза британским политикам, видящим в предложении шейха почти неограниченные возможности. И тут начинается бурная эпистолярная деятельность всех персонажей от премьер-министра до стенографисток, ловля лосося в которой не имеет ровно никакого значения, кроме как отвлечь общественность от более важных вещей, например, от войны в Ираке. Доводы доктора Джонса о громком провале громкого проекта никого не волнуют, впрочем, герой продолжает пытаться жить своей жизнью, будучи сначала пешкой, а затем и жертвой политической игры.

Доп. информация
Премьеры ▼премьера (мир) 10 сентября 2011
премьера (РФ) 29 марта 2012, «Top Film Distribution»
релиз на DVD 17 мая 2012, «Новый Диск», «New Dream media»
Рейтинг MPAA ▼
Детям до 13 лет просмотр не желателен
Mediainfo ▼Text
Общее
Полное имя : D:Salmon.Fishing.in.the.Yemen.2011.P.DVDRip.avi
Формат : AVI
Формат/Информация : Audio Video Interleave
Размер файла : 1,46 Гбайт
Продолжительность : 1 ч. 42 м.
Общий поток : 2033 Кбит/сек
Программа кодирования : VirtualDubMod 1.5.10.2 (build 2540/release)
Библиотека кодирования : VirtualDubMod build 2540/release

Видео
Идентификатор : 0
Формат : MPEG-4 Visual
Профиль формата : Advanced [email protected]
Параметр BVOP формата : 2
Параметр QPel формата : Нет
Параметр GMC формата : Без точки перехода
Параметр матрицы формата : Выборочная
Идентификатор кодека : XVID
Идентификатор кодека/Подсказка : XviD
Продолжительность : 1 ч. 42 м.
Битрейт : 1640 Кбит/сек
Ширина : 704 пикселя
Высота : 272 пикселя
Соотношение сторон : 2,588
Частота кадров : 25,000 кадров/сек
Цветовое пространство : YUV
Субдискретизация насыщенности : 4:2:0
Битовая глубина : 8 бит
Тип развёртки : Прогрессивная
Метод сжатия : С потерями
Бит/(Пиксели*Кадры) : 0.343
Размер потока : 1,18 Гбайт (81%)
Библиотека кодирования : XviD 1.2.1 (UTC 2008-12-04)

Аудио
Идентификатор : 1
Формат : AC-3
Формат/Информация : Audio Coding 3
Расширение режима : CM (complete main)
Параметр Endianness формата : Big
Идентификатор кодека : 2000
Продолжительность : 1 ч. 42 м.
Вид битрейта : Постоянный
Битрейт : 384 Кбит/сек
Каналы : 6 каналов
Расположение каналов : Front: L C R, Side: L R, LFE
Частота : 48,0 КГц
Битовая глубина : 16 бит
Метод сжатия : С потерями
Размер потока : 282 Мбайт (19%)
Выравнивание : Разделение по промежуткам
Продолжительность промежутка : 40 мс. (1,00 видеокадр)
Время предзагрузки промежутка : 500 мс.[/ code]

Тех. данные
Релиз группа
Качество: DVDRip.
Продолжительность: 01:42:44 час.

Формат: AVI
Видео кодек: XviD
Аудио кодек: AС3
Видео: 704x272 (4:2:0), 25,000 fps, Advanced Video Codec ~1640 kbps avg, 0.343 bit/pixel
Аудио: 48 kHz, Audio Coding 3 Dolby Digital, 6 ch (Front: L C R, Side: L R, LFE), ~384 kbps avg


|Cтол заказов| Наши раздачи| Набор в группу| Сказать спасибо|
Раздача идет до 10 человек, не уходите с раздачи и не забываем говорит Спасибо


599b0e8b5ea0acaa7bc078ce1dc233374f4d2ca7Рыба моей мечты / Salmon Fishing in the Yemen(Лассе Халльстрём, драма, мелодрама, комедия, 2011) [DVDRip, Профессиональный (многоголосый, закадровый)] Рыба моей мечты / Salmon Fishing in the Yemen(Лассе Халльстрём, драма, мелодрама, комедия, 2011) [DVDRip, Профессиональный (многоголосый, закадровый)] " />

Аплоадер: Админ, дата: 10-05-2012, 01:50, торрент скачан: 359 раз

Понравилась раздача? Посмотрите эти:
  • Бойфренд из будущего / About Time (Ричард Кёртис, Фантастика, драма, комеди ...
  • Миллион для чайников / The Brass Teapot (Рамаа Мосли, Фэнтези, триллер, ком ...
  • Даю год / I Give It a Year (Дэн Мазер, Мелодрама, комедия, 2013) [DVDRip, Д ...
  • Рыба моей мечты / Salmon Fishing in the Yemen (Лассе Халльстрём, Драма, 201 ...
  • Вот я какой/ Thats What I Am (Майкл Павоне, Драма, 2011) [HDRip, Профессион ...
  • Рыба моей мечты / Salmon Fishing in the Yemen (Лассе Халльстрём, Драма, мел ...
  • Глушь / Resurrection County (Матт Зеттел, Ужасы,триллер, 2008) [DVDRip, Про ...
  • Что гложет Гилберта Грейпа? / Whats Eating Gilbert Grape (Лассе Халльстрём, ...
  • Рыба моей мечты / Salmon Fishing in the Yemen (Лассе Халльстрём, Драма, 201 ...
  • Отбой / Taps (Харольд Беккер, Драма, 1981) [DVDRip, Профессиональный (много ...
  • Путешествие на дно моря / Voyage to the Bottom of the Sea (Ирвин Аллен / I ...
  • Кажется, я люблю свою жену / I Think I Love My Wife (Крис Рок, Драма, мелод ...
  • Кажется, я люблю свою жену / I Think I Love My Wife (Крис Рок, Драма, мелод ...
  • Темный сахар / Brown Sugar (Рик Фамуйива, Драма, мелодрама, комедия, музыка ...
  • Дорога на... / Road to (Таисия Игуменцева, Комедия, короткометражный, 2011) ...
  • А что насчет тебя? / How About You (Энтони Бирн, Драма, комедия, 2007) [DVD ...
  • Боец из трущоб / Gutter King (Кейт Алан Моррис / Keith Alan Morris, боевик, ...
  • Рыба моей мечты / Salmon Fishing in the Yemen (Лассе Халльстрём, драма, мел ...
  • Рыба моей мечты / Salmon Fishing in the Yemen (Лассе Халльстрём, Драма, 201 ...
  • Рыба моей мечты / Salmon Fishing in the Yemen (Лассе Халльстрём, Драма, мел ...
  • Рыба моей мечты / Salmon Fishing in the Yemen (Лассе Халльстрём, Драма, мел ...
  • Глаз шторма / The Eye of the Storm (Фред Скеписи, Драма, 2011) [HDRip, Проф ...
  • Музыка внутри / Music Within (Стивен Савалич, Драма, мелодрама, комедия, во ...
  • Человек из банки (Иван Кульнев, Комедия, 2012) [DVDRip, Не требуется]
  • Сдохни, Джон Такер / John Tucker Must Die (Бетти Томас, мелодрама, комедия, ...
  • Информация
    Посетители, находящиеся в группе Гости, не могут оставлять комментарии к данной публикации.