вход на сайт

Имя пользователя :
Пароль :

Восстановление пароля Регистрация
Светлячки в саду / Fireflies in the garden (Дэннис Ли , драма, 2008) [HDRip, Дублированный + Оригинал + Sub]
Рейтинг:
(голосов: 1)



[img]{THEME}/images/logopost.png[/img]



Светлячки в саду / Fireflies in the Garden
«Sometimes a family must come apart before it can come together»

Год выпуска: 2008
Страна: США
Производство: Kulture Machine
Жанр: драма

Режиссёр: Дэннис Ли
В ролях: Райан Рейнольдс, Уиллем Дефо, Эмили Уотсон, Кэрри-Энн Мосс, Джулия Робертс, Йоан Гриффит, Хайден Панеттьери, Шеннон Лучио, Кейден Бойд, Джордж Ньюберн, Чейз Эллисон, Бруклин Пру

Перевод: Дублированный + Оригинал
Субтитры: Русские, Английские / отдельно

Описание: История раскола одной обычной семьи, у каждого из членов которой своя трагедия. Лиза гибнет в автокатастрофе, виновником которой является её муж Чарльз. Сын Лизы и Чарльза, Майкл, женатый на алкоголичке Келли, решает написать книгу о своем детстве. Этому противится вся семья — от тети до самого Чарльза…
"Знаете ли вы, что..." ▼-В фильме один из главных героев читает стихотворение Роберта Фроста «Светлячки в саду», название которого стало названием данной ленты.
-Джулия Робертс играет мать героя Райана Рейнолдса, хотя в реальной жизни Робертс всего лишь на девять лет старше своего экранного сына.
-Для режиссера и сценариста Денниса Ли сюжет картины в большой степени автобиографичен.
-Джулия Робертс, сыгравшая беременную мать героя, во время съемок действительно была беременна.
-Оператором картины является муж Джулии Робертс, Дэниэл Модер.


Качество: HDRip (Исходник: BDRip 720p)
Продолжительность: 01:40:01 час.

Формат: AVI
Видео кодек: XviD
Аудио кодек: AC3
Видео: 704x288 (2.35:1), 23.976 fps, XviD ~2142 kbps, 0.269 bit/pixel
Аудио: 48 kHz, AC3, 6 ch, ~384.00 kbps avg | Russian (DUB)
Аудио: 48 kHz, AC3, 6 ch, ~384.00 kbps avg | English

Премьера (мир): 10 февраля 2008
Премьера (РФ): 24 июля 2008, «West»
Mediainfo ▼General
Complete name : /Torrents/home/borodach/data/Last Holiday.avi
Format : AVI
Format/Info : Audio Video Interleave
File size : 1.46 GiB
Duration : 1h 51mn
Overall bit rate : 1 867 Kbps
Writing application : VirtualDubMod 1.5.10.2 (build 2540/release)
Writing library : VirtualDubMod build 2540/release

Video
ID : 0
Format : MPEG-4 Visual
Format profile : Advanced [email protected]
Format settings, BVOP : 2
Format settings, QPel : No
Format settings, GMC : No warppoints
Format settings, Matrix : Default (MPEG)
Codec ID : XVID
Codec ID/Hint : XviD
Duration : 1h 51mn
Bit rate : 1 409 Kbps
Width : 720 pixels
Height : 304 pixels
Display aspect ratio : 2.35:1
Frame rate : 23.976 fps
Color space : YUV
Chroma subsampling : 4:2:0
Bit depth : 8 bits
Scan type : Progressive
Compression mode : Lossy
Bits/(Pixel*Frame) : 0.269
Stream size : 1.10 GiB (75%)
Writing library : XviD 1.2.1 (UTC 2008-12-04)

Audio
ID : 1
Format : AC-3
Format/Info : Audio Coding 3
Mode extension : CM (complete main)
Codec ID : 2000
Duration : 1h 51mn
Bit rate mode : Constant
Bit rate : 448 Kbps
Channel(s) : 6 channels
Channel positions : Front: L C R, Side: L R, LFE
Sampling rate : 48.0 KHz
Bit depth : 16 bits
Compression mode : Lossy
Stream size : 358 MiB (24%)
Alignment : Split accross interleaves
Interleave, duration : 42 ms (1.00 video frame)
Interleave, preload duration : 500 ms


e9c589456418cbc1b89b84dd417ab74eac52282fСветлячки в саду / Fireflies in the garden (Дэннис Ли , драма, 2008) [HDRip, Дублированный + Оригинал + Sub] Светлячки в саду / Fireflies in the garden (Дэннис Ли , драма, 2008) [HDRip, Дублированный + Оригинал + Sub] " />

Аплоадер: Админ, дата: 2-05-2012, 14:04, торрент скачан: 359 раз

Понравилась раздача? Посмотрите эти:
  • Верное дельце / Une pure affaire (Александр Коффре, Боевик, Комедия, Кримин ...
  • Мои герои / Mes heros (Эрик Беснард, комедия, 2012) [HDRip, Профессиональны ...
  • Посылка / The Package (Джесси Джонсон, боевик, 2013) [HDRip, Профессиональн ...
  • Элитное общество / The Bling Ring (София Коппола, драма, криминал, 2013) [H ...
  • Мёбиус / Mоbius (Эрик Рошан, триллер, драма, 2013) [HDRip, Дублированный + ...
  • Светлячки в саду / Fireflies in the garden (Дэннис Ли, драма, 2008) [BDRip, ...
  • [EN] 42 / 42 (Брайан Хелгеленд, Драма, биография, спорт, 2013) [BDRip, Ориг ...
  • Мужество / Wymyk (Грег Зглински, драма, 2011) [DVDRip, Любительский (одного ...
  • Звук моего голоса / Sound of My Voice (Зал Батманглидж, триллер, драма, 201 ...
  • Слепой поворот / Blind Turn (Роберт Орр, Триллер, драма, детектив, 2012) [W ...
  • 23:59 / 23:59 (Гилберт Чан, Ужасы, 2011) [HDRip, Любительский (одноголосый ...
  • Газетчик / The Paperboy (Ли Дэниелс, триллер, 2012) [HDRip, Дублированный]
  • Остановка 2: Не оглядывайся назад / Rest Stop: Dont Look Back (Шоун Папазян ...
  • Джефф, живущий дома / Jeff, Who Lives at Home (Джей Дюпласс, Марк Дюпласс, ...
  • Захват / Carjacked (Джон Бонито, триллер, 2011)[BDRip, Профессиональный (мн ...
  • Светлячки в саду / Fireflies in the garden (Дэннис Ли , драма, 2008) [HDRip ...
  • Светлячки в саду / Fireflies in the garden (Дэннис Ли , драма, 2008) [HDRip ...
  • Спящая красавица / Sleeping Beauty (Джулия Ли, Драма, 2011) [HDRip, Професс ...
  • Стыд / Shame (Стив МакКуин, драма, 2011) [HDRip, Дублированный + Оригинал] ...
  • Последний отпуск / Last Holiday (Уэйн Ван, Драма, комедия, приключения, 200 ...
  • Ресторан господина Септима / Le grand restaurant (Жак Бенар, комедия, крим ...
  • Трус / Faintheart (Вито Рокко, Комедия, 2008) [BDRip, Профессиональный (дву ...
  • Супершторм в Сиэтле / Seattle Superstorm (Джейсон Бурк, фантастика, боевик ...
  • Девушки в опасности / Damsels in Distress (Уит Стиллман, драма, мелодрама, ...
  • Глаз шторма / The Eye of the Storm (Фред Скеписи, Драма, 2011) [HDRip, Проф ...
  • Информация
    Посетители, находящиеся в группе Гости, не могут оставлять комментарии к данной публикации.