вход на сайт

Имя пользователя :
Пароль :

Восстановление пароля Регистрация
Миленькие штучки / Les Jolies Choses (Жиль Паке-Бреннер, драма, 2011) [DVDRip, Профессиональный (многоголосый закадровый)]
Рейтинг:
(голосов: 1)



[img]{THEME}/images/logopost.png[/img]



Миленькие штучки / Les Jolies Choses

Год выпуска: 2001
Страна: Франция
Производство: C.A.P.A.C.
Жанр: драма

Режиссёр: Жиль Паке-Бреннер
В ролях: Марион Котийяр, Стоми Багси, Патрик Брюэль, Титофф, Офелия Винтер, Тони Амони, Оливье Гранье, Од Бреннер, Аксель Ренуар, Фридерик Сорель

Перевод: Профессиональный (многоголосый закадровый)
Субтитры: Отсутствуют

Описание: Мари и Люси — сестры-близнецы. Кроме внешнего сходство, у них нет ничего общего: ни характера, ни способностей, ни отношения к жизни. Люси, не имея хорошего голоса, мечтает записать свой диск и упрямо идет к цели, хотя ее друг Николя не верит в безголосую певицу.

На помощь сестре приходит Мари. Она будет петь вместо Люси… В этой детективной истории будут успех и неудачи, обманы и подмены… Но чем она закончится, если на кон поставлена известность и слава?



Качество: DVDRip (Исходник: DVD5)
Продолжительность: 01:38:48 час.

Формат: AVI
Видео кодек: XviD
Аудио кодек: MP3
Видео: 688x368 (2.35:1), 25.000 fps, XviD ~922 kbps, 0.146 bit/pixel
Аудио: 48 kHz, MP3, 2 ch, ~128.00 kbps avg | Russian (MVO)

Премьера (мир): 21 июля 2001
Mediainfo ▼General
Complete name : /Torrents/home/borodach/data/Миленькие штучки (748).avi
Format : AVI
Format/Info : Audio Video Interleave
File size : 749 MiB
Duration : 1h 38mn
Overall bit rate : 1 059 Kbps
Writing application : VirtualDubMod 1.5.10.2 (build 2540/release)
Writing library : VirtualDubMod build 2540/release

Video
ID : 0
Format : MPEG-4 Visual
Format profile : Advanced [email protected]
Format settings, BVOP : 3
Format settings, QPel : No
Format settings, GMC : No warppoints
Format settings, Matrix : Default (H.263)
Codec ID : XVID
Codec ID/Hint : XviD
Duration : 1h 38mn
Bit rate : 922 Kbps
Width : 688 pixels
Height : 368 pixels
Display aspect ratio : 1.870
Frame rate : 25.000 fps
Color space : YUV
Chroma subsampling : 4:2:0
Bit depth : 8 bits
Scan type : Progressive
Compression mode : Lossy
Bits/(Pixel*Frame) : 0.146
Stream size : 651 MiB (87%)
Writing library : XviD 1.2.1 (UTC 2008-12-04)

Audio
ID : 1
Format : MPEG Audio
Format version : Version 1
Format profile : Layer 3
Codec ID : 55
Codec ID/Hint : MP3
Duration : 1h 38mn
Bit rate mode : Constant
Bit rate : 128 Kbps
Channel(s) : 2 channels
Sampling rate : 48.0 KHz
Compression mode : Lossy
Stream size : 90.4 MiB (12%)
Alignment : Aligned on interleaves
Interleave, duration : 40 ms (1.00 video frame)
Interleave, preload duration : 504 ms
Writing library : LAME3.98r
Encoding settings : -m s -V 4 -q 2 -lowpass 17 -b 128


f88e849619a31f4f2cceede2d561146bef9c779eМиленькие штучки / Les Jolies Choses (Жиль Паке-Бреннер, драма, 2011) [DVDRip, Профессиональный (многоголосый закадровый)] Миленькие штучки / Les Jolies Choses (Жиль Паке-Бреннер, драма, 2011) [DVDRip, Профессиональный (многоголосый закадровый)] " />

Аплоадер: Админ, дата: 1-05-2012, 10:56, торрент скачан: 359 раз

Понравилась раздача? Посмотрите эти:
  • Непристойная комедия / InAPPropriate Comedy (Винс Оффер, комедия, 2013) [D ...
  • Непристойная комедия / InAPPropriate Comedy (Винс Оффер, комедия, 2013) [DV ...
  • Погнали! / Getaway (Кортни Соломон, Боевик,Криминал, 2013) [HDRip, Професси ...
  • Орудие смерти / A-i-deul... (Ли Гю Ман, Триллер, криминал, 2011) [DVDRip, П ...
  • Верное дельце / Une pure affaire (Александр Коффре, Боевик, Комедия, Кримин ...
  • Мэрайа Мунди и шкатулка Мидаса / The Adventurer: The Curse of the Midas Box ...
  • Мужество / Wymyk (Грег Зглински, драма, 2011) [DVDRip, Любительский (одного ...
  • Альбатрос / Albatross (Найал МакКормик, Драма, 2011) [DVDRip, Профессиональ ...
  • Лучший стрелок / Top Gun (Тони Скотт, боевик, драма, мелодрама, 1986) [BDRi ...
  • Псы войны / The Dogs of War (Джон Ирвин, боевик, драма, приключения, военны ...
  • Миленькие штучки / Les Jolies Choses (Жиль Паке-Бреннер, драма, 2011) [DVDR ...
  • Все песни только о любви / Les Chansons d amour (Кристоф Оноре, драма, 2007 ...
  • Эрик Викинг / Erik the Viking (Терри Джонс, фэнтези, комедия, приключения, ...
  • Мой парень – псих / Silver Linings Playbook (Дэвид О. Расселл, Драма, мелод ...
  • Чемпионат Европы 2012 / Группа D / 1-й тур / Украина - Швеция / Спорт 1 [11 ...
  • Папаша / Starbuck (Кен Скотт, Драма, комедия, 2011) [BDRip, Профессиональны ...
  • Яркая звезда / Bright Star (Джейн Кэмпион / Jane Campion) [2009, Биографиче ...
  • Вскрытие инопланетянина/Alien Autopsy (Джонни Кэмпбелл, Комедия, фантастика ...
  • Романтики / The Romantics (Галт Нидерхоффер, Драма, мелодрама, комедия, 201 ...
  • Мгновение любви / Here (Браден Кинг, Драма, мелодрама, приключения, 2011) [ ...
  • Музыка нас связала / You Instead (Дэвид МакКензи, Драма, комедия, музыка, 2 ...
  • Глушь / Resurrection County (Matt Zettell, ужасы, триллер, 2008) [DVDRip, П ...
  • Искажение / Skew (Сейв Челенз, ужасы, триллер, 2011) [HDRip, Профессиональн ...
  • Ничего, кроме правды / Nothing But the Truth (Род Лури, триллер, драма, 200 ...
  • Робинзон Крузо / Robinson Crusoe (Род Харди, Джордж Миллер, драма, приключе ...
  • Информация
    Посетители, находящиеся в группе Гости, не могут оставлять комментарии к данной публикации.