вход на сайт

Имя пользователя :
Пароль :

Восстановление пароля Регистрация
Мистер Ганджубас / Mr. Nice (Бернард Роуз, Драма, комедия, 2010)[HDRip, Профессиональный (многоголосый закадровый)]
Рейтинг:
(голосов: 1)



[img]{THEME}/images/logopost.png[/img]



Мистер Ганджубас / Mr. Nice

«Most Wanted. Most Wasted.»

Год выпуска: 2010
Страна: Великобритания
Производство: Independent
Жанр: драма, комедия

Режиссёр: Бернард Роуз
В ролях: Рис Иванс, Клоэ Севиньи, Дэвид Тьюлис, Эльза Патаки, Криспин Гловер, Эндрю Тирнан, Омид Джалили, Джек Хьюстон, Джэми Харрис

Перевод: Профессиональный (Полное дублирование) [Лицензия]
Субтитры:Нет
Описание
Фильм снят по популярной автобиографии Говарда Маркса, одного из самых известных в мире контрабандистов марихуаны.

Доп. информация
Mediainfo ▼General
Complete name : C:Documents and SettingsAdminМои документыDownloadsMister.Gandzhubas.2010.P.HDRip.740Mb.avi
Format : AVI
Format/Info : Audio Video Interleave
File size : 744 MiB
Duration : 2h 0mn
Overall bit rate : 860 Kbps
Writing application : VirtualDubMod 1.5.10.3 | www.virtualdub-fr.org || (build 2550/release)

Video
ID : 0
Format : MPEG-4 Visual
Format profile : Advanced [email protected]
Format settings, BVOP : Yes
Format settings, QPel : No
Format settings, GMC : No warppoints
Format settings, Matrix : Custom
Codec ID : XVID
Codec ID/Hint : XviD
Duration : 2h 0mn
Bit rate : 723 Kbps
Width : 624 pixels
Height : 336 pixels
Display aspect ratio : 1.857
Frame rate : 23.976 fps
Resolution : 8 bits
Colorimetry : 4:2:0
Scan type : Progressive
Bits/(Pixel*Frame) : 0.144
Stream size : 625 MiB (84%)
Writing library : XviD 58

Audio
ID : 1
Format : MPEG Audio
Format version : Version 1
Format profile : Layer 3
Codec ID : 55
Codec ID/Hint : MP3
Duration : 2h 0mn
Bit rate mode : Constant
Bit rate : 128 Kbps
Channel(s) : 2 channels
Sampling rate : 48.0 KHz
Stream size : 111 MiB (15%)
Alignment : Aligned on interleaves
Interleave, duration : 42 ms (1.00 video frame)
Interleave, preload duration : 504 ms
Writing library : LAME3.99.1

Тех. данные
Качество: HDRip,
Продолжительность: 02:00:56 час.

Формат: AVI,
Видео кодек: XviD,
Аудио кодек: AС3,
Видео: 624x336 (1.86:1), 23.976 fps, XviD build 58 ~722 kbps avg, 0.14 bit/pixel
Аудио: 48 kHz, MPEG Layer 3, 2 ch, ~128.00 kbps avg

|Cтол заказов| Наши раздачи| Набор в группу| Сказать спасибо|
Раздача идет до 10 человек, не уходите с раздачи и не забываем говорит Спасибо


dbdae77ccd74d078f93670cf6e1b86a25a9535b4Мистер Ганджубас / Mr. Nice (Бернард Роуз, Драма, комедия, 2010)[HDRip, Профессиональный (многоголосый закадровый)] Мистер Ганджубас / Mr. Nice (Бернард Роуз, Драма, комедия, 2010)[HDRip, Профессиональный (многоголосый закадровый)] " />

Аплоадер: Админ, дата: 27-04-2012, 23:03, торрент скачан: 359 раз

Понравилась раздача? Посмотрите эти:
  • Погнали! / Getaway (Кортни Соломон, Боевик,Криминал, 2013) [HDRip, Професси ...
  • [EN] Команда: На пути Аллаха / Takiye: Allah yolunda (2010, Бен Вербонг, тр ...
  • Новые парни турбо / New Kids Turbo (Штефен Хаарс, Боевик, комедия, 2010) [H ...
  • Без всего / Sin ella (Джордже Колон, Мелодрама, 2010) [HDTVRip , Профессион ...
  • Формула 1 2011 / Этап 17 из 19 / Гран-При Индии / Гонка / Спорт 1 [30.10.20 ...
  • Чемпионат Европы 2012 / Группа D / 1-й тур / Украина - Швеция / Спорт 1 [11 ...
  • Tank Feat. T.I. & Kris Stephens / Compliments [2012, RnB,Hip-Hop, HDRip]
  • Маленький Николя / Le Petit Nicolas ( Лорен Тирар,комедия, семейный,2009 ) ...
  • Неделя в NBA с В.Гомельским / НТВ+ [28.06.2011, SD, XviD, RU, SAT]
  • Задание / The Task (Алекс Оруэлл, Ужасы, 2010) [HDRip, Профессиональный (мн ...
  • Мистер Ганджубас / Mr. Nice (Бернард Роуз, Драма, 2010) [HDRip, Профессиона ...
  • Мистер Ганджубас / Mr. Nice (Бернард Роуз, Драма, 2010) [HDRip, Профессиона ...
  • Военные игры / War Games: At the End of the Day(Козимо Алема, Триллер, Ужас ...
  • Романтики / The Romantics (Галт Нидерхоффер, Драма, мелодрама, комедия, 201 ...
  • Чемпионат Европы 2012 / Группа B / 1-й тур / Германия - Португалия / Спорт ...
  • Полусвет / Half Light (Крэйг Розенберг, Ужасы, триллер, драма, детектив, 20 ...
  • Замёрзший мир / 2012: Ice Age (Трэвис Форт, фантастика, боевик, 2011) [HDRi ...
  • Девушки в опасности / Damsels in Distress (Уит Стиллман, драма, мелодрама, ...
  • Искажение / Skew (Сейв Челенз, ужасы, триллер, 2011) [HDRip, Профессиональн ...
  • Ничего, кроме правды / Nothing But the Truth (Род Лури, триллер, драма, 200 ...
  • Информация
    Посетители, находящиеся в группе Гости, не могут оставлять комментарии к данной публикации.