вход на сайт

Имя пользователя :
Пароль :

Восстановление пароля Регистрация
Стыд / Shame (Стив МакКуин, драма, 2011) [HDRip, Дублированный + Оригинал]
Рейтинг:
(голосов: 1)



[img]{THEME}/images/logopost.png[/img]



Стыд / Shame

Год выпуска: 2011
Страна: Великобритания
Производство: Momentum Pictures
Жанр: драма

Режиссёр: Стив МакКуин
В ролях: Майкл Фассбендер, Кэри Маллиган, Люсиль Уолтерс, Мари-Анхе Рамирес, Джеймс Бэдж Дэйл, Николь Бихэйр, Алекс Манетт, Ханна Уэр, Элизабет Масуччи, Рэйчел Фаррар, Лорен Омер

Перевод: Дублированный + Оригинал
Субтитры: Отсутствуют

Описание: Главный герой — житель Нью-Йорка, страдающий от эротомании и неспособный контролировать свою сексуальную жизнь. Он пытается обрести поддержку своих родных, а также ищет помощи у сотрудников.
"Знаете ли вы, что..." ▼Фильм был снят за 25 дней.

Несмотря на бюджет в 6.5 млн. долларов, кинокомпания Fox Searchlight Pictures заплатила лишь 600 тыс. долларов за прокат фильма.

Сцена, где Брэндон слышит, как его сестра поет в ресторане, была снята в режиме реального времени. Так как Джеймс Бэдж Дэйл и Майкл Фассбендер никогда до этого не слышали ее голос, их реакция была настоящей. Сцена снималась в 3 часа ночи, а камеры были сфокусированы на трех главных персонажах.


Автор рипа: Scarabey

Качество: HDRip Сэмпл
Продолжительность: 01:41:08 час.

Формат: AVI
Видео кодек: XviD build 50
Аудио кодек: AC3 Dolby Digital
Видео: 720x304 (2.37:1), 23.976 fps, XviD build 50 ~2374 kbps avg, 0.45 bit/pixel
Аудио: 48 kHz, AC3 Dolby Digital, 3/2 (L,C,R,l,r) + LFE ch, ~448.00 kbps avg | Russian (DUB)
Аудио: 48 kHz, AC3 Dolby Digital, 2 ch, ~192.00 kbps avg | English

Премьера (мир): 4 сентября 2011
Премьера (РФ): 23 февраля 2012, «Кино без границ»
Mediainfo ▼General
Complete name : /Torrents/home/borodach/data/Styd.avi
Format : AVI
Format/Info : Audio Video Interleave
Format profile : OpenDML
File size : 2.14 GiB
Duration : 1h 41mn
Overall bit rate : 3 032 Kbps
Writing application : VirtualDubMod 1.5.10.2 (build 2540/release)
Writing library : VirtualDubMod build 2540/release

Video
ID : 0
Format : MPEG-4 Visual
Format profile : Advanced [email protected]
Format settings, BVOP : 1
Format settings, QPel : No
Format settings, GMC : No warppoints
Format settings, Matrix : Custom
Codec ID : XVID
Codec ID/Hint : XviD
Duration : 1h 41mn
Bit rate : 2 375 Kbps
Width : 720 pixels
Height : 304 pixels
Display aspect ratio : 2.35:1
Frame rate : 23.976 fps
Color space : YUV
Chroma subsampling : 4:2:0
Bit depth : 8 bits
Scan type : Progressive
Compression mode : Lossy
Bits/(Pixel*Frame) : 0.453
Stream size : 1.68 GiB (78%)
Writing library : XviD 1.2.1 (UTC 2008-12-04)

Audio #1
ID : 1
Format : AC-3
Format/Info : Audio Coding 3
Mode extension : CM (complete main)
Codec ID : 2000
Duration : 1h 41mn
Bit rate mode : Constant
Bit rate : 448 Kbps
Channel(s) : 6 channels
Channel positions : Front: L C R, Side: L R, LFE
Sampling rate : 48.0 KHz
Bit depth : 16 bits
Compression mode : Lossy
Stream size : 324 MiB (15%)
Alignment : Split accross interleaves
Interleave, duration : 42 ms (1.00 video frame)
Interleave, preload duration : 500 ms

Audio #2
ID : 2
Format : AC-3
Format/Info : Audio Coding 3
Mode extension : CM (complete main)
Codec ID : 2000
Duration : 1h 41mn
Bit rate mode : Constant
Bit rate : 192 Kbps
Channel(s) : 2 channels
Channel positions : Front: L R
Sampling rate : 48.0 KHz
Bit depth : 16 bits
Compression mode : Lossy
Stream size : 139 MiB (6%)
Alignment : Aligned on interleaves
Interleave, duration : 42 ms (1.00 video frame)
Interleave, preload duration : 512 ms


82ad0432ea223a7bf5ed48ef6ab9afd0376bddbeСтыд / Shame (Стив МакКуин, драма, 2011) [HDRip, Дублированный + Оригинал] Стыд / Shame (Стив МакКуин, драма, 2011) [HDRip, Дублированный + Оригинал] " />

Аплоадер: Админ, дата: 24-04-2012, 02:28, торрент скачан: 359 раз

Понравилась раздача? Посмотрите эти:
  • Верное дельце / Une pure affaire (Александр Коффре, Боевик, Комедия, Кримин ...
  • Мёбиус / Mоbius (Эрик Рошан, триллер, драма, 2013) [HDRip, Дублированный + ...
  • Мужество / Wymyk (Грег Зглински, драма, 2011) [DVDRip, Любительский (одного ...
  • Звук моего голоса / Sound of My Voice (Зал Батманглидж, триллер, драма, 201 ...
  • Слепой поворот / Blind Turn (Роберт Орр, Триллер, драма, детектив, 2012) [W ...
  • 23:59 / 23:59 (Гилберт Чан, Ужасы, 2011) [HDRip, Любительский (одноголосый ...
  • Тюремщик / Screwed (Рег Тревисс / Reg Traviss, Драма, 2011) [DVDRip , Люби ...
  • Стыд / Shame (Стив МакКуин, Драма, 2011) [HDRip - AVC, Дубляж + SUB]
  • Стыд / Shame (Стив МакКуин, Драма, 2011) [BDRip - AVC, Дубляж + Оригинал + ...
  • Стыд / Shame (Стив МакКуин, драма, 2011) [HDRip-AVC, Дублированный + Субтит ...
  • Супер циклон / Super Cyclone (Лиз Адамс / Liz Adams, боевик, 2012) [HDRip, ...
  • Захват / Carjacked (Джон Бонито, триллер, 2011)[BDRip, Профессиональный (мн ...
  • Стыд / Shame (Стив МакКуин, драма, 2011) [BDRip 720p, Дублированный + Ориги ...
  • Стыд / Shame (Стив МакКуин, драма, 2011) [BDRemux 1080p, Дублированный + Од ...
  • Стыд / Shame (Стив МакКуин, Драма, 2011) [BDRip-AVC, Профессиональный (полн ...
  • Стыд / Shame (Стив МакКуин, драма, 2011) [HDRip, Профессиональный (полное д ...
  • Стыд / Shame (Стив МакКуин, Драма, 2011) [BDRip, Дубляж]
  • Стыд / Shame (Стив МакКуин, драма, 2011) [BDRip, Авторский (одноголосый, за ...
  • Супершторм в Сиэтле / Seattle Superstorm (Джейсон Бурк, фантастика, боевик ...
  • Девушки в опасности / Damsels in Distress (Уит Стиллман, драма, мелодрама, ...
  • Информация
    Посетители, находящиеся в группе Гости, не могут оставлять комментарии к данной публикации.