вход на сайт

Имя пользователя :
Пароль :

Восстановление пароля Регистрация
Неприкасаемые / Intouchables (Оливье Накаш, Эрик Толедано, Драма, 2011) [BDRip, Любительский (двухголосый, закадровый)
Рейтинг:
(голосов: 1)



[img]{THEME}/images/logopost.png[/img]



Неприкасаемые / Intouchables

Год выпуска: 2011
Страна: Франция
Производство: Quad Productions
Жанр: драма, комедия

Режиссёр: Оливье Накаш / Olivier Nakache, Эрик Толедано / Eric Toledano
В ролях: Франсуа Клюзе, Омар Сай, Анн Ле Ни, Одри Флеро, Клотильд Молле, Альба Гайя, Крагеде Беллуджи, Сирил Менди, Кристиан Амери, Грегуар Эстерманн, Жозефин де Мо

Перевод: Любительский (двухголосый) закадровый Kenum и Ирина ЮС
Субтитры: русские, английские

Описание: Пострадав в результате несчастного случая, богатый аристократ Филипп нанимает в помощники человека, который менее всего подходит для этой работы, — молодого жителя предместья, араба Дрисса, только что освободившегося из тюрьмы. Несмотря на то, что Филипп прикован к инвалидному креслу, Дриссу удается привнести в размеренную жизнь аристократа дух приключений.



Дата премьеры (мир): 23 сентября 2011г.
Дата премьеры (РФ): 26 апреля 2012г.

Качество: BDRip(BDRemux)
Продолжительность: 01:47:45
Формат: AVI
Видео кодек: MPEG-4 Visual
Аудио кодек: MPEG
Видео: 720x384 (1.88:1), 24 fps, XviD build 50 ~1583 kbps avg, 0.24 bit/pixel
Audio #1: 48 kHz, MPEG Layer 3, 2 ch, ~128.00 kbps avg RUS
Audio #2: 48 kHz, MPEG Layer 3, 2 ch, ~128.00 kbps avg FRA

"MediaInfo" ▼General
Complete name : D:Новая папкаNepricosaemie.chopper887
Format : AVI
Format/Info : Audio Video Interleave
File size : 1.45 GiB
Duration : 1h 52mn
Overall bit rate : 1 855 Kbps
Movie name : Nepricosaemie.chopper887
Director : chopper887
Genre : Drama, Comedy
Writing application : VirtualDubMod 1.5.10.3 | www.virtualdub-fr.org || (build 2550/release)
Original source form/Name : Movie
Video
ID : 0
Format : MPEG-4 Visual
Format profile : Advanced [email protected]
Format settings, BVOP : 2
Format settings, QPel : No
Format settings, GMC : No warppoints
Format settings, Matrix : Custom
Codec ID : XVID
Codec ID/Hint : XviD
Duration : 1h 52mn
Bit rate : 1 585 Kbps
Width : 720 pixels
Height : 384 pixels
Display aspect ratio : 1.875
Frame rate : 24.000 fps
Color space : YUV
Chroma subsampling : 4:2:0
Bit depth : 8 bits
Scan type : Progressive
Compression mode : Lossy
Bits/(Pixel*Frame) : 0.239
Stream size : 1.24 GiB (85%)
Writing library : XviD 1.2.1 (UTC 2008-12-04)
Audio #1
ID : 1
Format : MPEG Audio
Format version : Version 1
Format profile : Layer 3
Mode : Joint stereo
Mode extension : MS Stereo
Codec ID : 55
Codec ID/Hint : MP3
Duration : 1h 52mn
Bit rate mode : Constant
Bit rate : 128 Kbps
Channel(s) : 2 channels
Sampling rate : 48.0 KHz
Compression mode : Lossy
Stream size : 103 MiB (7%)
Alignment : Aligned on interleaves
Interleave, duration : 42 ms (1.00 video frame)
Interleave, preload duration : 504 ms
Writing library : LAME3.99r
Encoding settings : -m j -V 4 -q 2 -lowpass 17 -b 128
Audio #2
ID : 2
Format : MPEG Audio
Format version : Version 1
Format profile : Layer 3
Mode : Joint stereo
Mode extension : MS Stereo
Codec ID : 55
Codec ID/Hint : MP3
Duration : 1h 52mn
Bit rate mode : Constant
Bit rate : 128 Kbps
Channel(s) : 2 channels
Sampling rate : 48.0 KHz
Compression mode : Lossy
Stream size : 103 MiB (7%)
Alignment : Aligned on interleaves
Interleave, duration : 42 ms (1.00 video frame)
Interleave, preload duration : 504 ms
Writing library : LAME3.99r
Encoding settings : -m j -V 4 -q 2 -lowpass 17 -b 128



e0f246fa8d50212123ef82e6f67fba00966fccb3Неприкасаемые / Intouchables (Оливье Накаш, Эрик Толедано, Драма, 2011) [BDRip, Любительский (двухголосый, закадровый) Неприкасаемые / Intouchables (Оливье Накаш, Эрик Толедано, Драма, 2011) [BDRip, Любительский (двухголосый, закадровый) " />

Аплоадер: Админ, дата: 2-04-2012, 00:53, торрент скачан: 359 раз

Понравилась раздача? Посмотрите эти:
  • 1+1 / Неприкасаемые / Intouchables (Оливье Накаш, Эрик Толедано, Драма, 201 ...
  • 1+1 / Неприкасаемые / Intouchables (Оливье Накаш, Эрик Толедано, Драма, 201 ...
  • 1+1 / Неприкасаемые / Intouchables ( Оливье Накаш, Эрик Толедано, драма, ко ...
  • 1+1 / Неприкасаемые / Intouchables (Оливье Накаш, Эрик Толедано, драма, ком ...
  • 1+1 / Неприкасаемые / Intouchables (Оливье Накаш, Эрик Толедано, драма, ком ...
  • 1+1 / Неприкасаемые / Intouchables (Оливье Накаш, Эрик Толедано, драма, ком ...
  • Неприкасаемые (1+1) / Intouchables (Оливье Накаш, Эрик Толедано, драма, ком ...
  • 1+1 / Неприкасаемые / Intouchables (Оливье Накаш, Эрик Толедано, Драма, ком ...
  • Неприкасаемые / 1+1 / Intouchables (Оливье Накаш, Эрик Толедано, драма, ком ...
  • [FR] Неприкасаемые / Intouchables (Оливье Накаш, Эрик Толедано, драма, 2011 ...
  • Неприкасаемые / Intouchables (Оливье Накаш, Эрик Толедано, драма, комедия, ...
  • 1+1 / Неприкасаемые / Intouchables (Оливье Накаш, Эрик Толедано, драма, ком ...
  • 1+1 / Неприкасаемые / Intouchables (Оливье Накаш, Эрик Толедано, Драма, 201 ...
  • 1+1 / Неприкасаемые / Intouchables (Оливье Накаш, Эрик Толедано, драма, ком ...
  • 1+1 / Неприкасаемые / Intouchables (Оливье Накаш, Эрик Толедано, драма, ком ...
  • 1+1 / Неприкасаемые / Intouchables (Оливье Накаш, Эрик Толедано, драма, ком ...
  • Неприкасаемые / Intouchables (Оливье Накаш, Эрик Толедано, драма, комедия, ...
  • 1+1 / Неприкасаемые / Intouchables (Оливье Накаш, Эрик Толедано, драма, ком ...
  • 1+1 / Неприкасаемые / Intouchables (Оливье Накаш, Эрик Толедано, драма, ком ...
  • 1+1 / Неприкасаемые / Intouchables (Оливье Накаш, Эрик Толедано, Драма, 201 ...
  • Информация
    Посетители, находящиеся в группе Гости, не могут оставлять комментарии к данной публикации.