вход на сайт

Имя пользователя :
Пароль :

Восстановление пароля Регистрация
Мартовские иды / The Ides of March (Джордж Клуни, Драма, 2011) [HDRip, Полное дублирование]
Рейтинг:
(голосов: 1)



[img]{THEME}/images/logopost.png[/img]



Мартовские иды / The Ides of March

Год выпуска: 2011
Страна: СШA
Производство: Cross Creek Pictures, Exclusive Media Group, Smoke House
Жанр: Драма

Режиссёр: Джордж Клуни
В ролях: Райан Гослинг Джордж Клуни Филип Сеймур Хоффман Пол Джаматти Мариса Томей Джеффри Райт Ивэн Рэйчел Вуд Макс Мингелла Дженнифер Эль Грегори Итцин

Перевод: Полное дублирование [лицензия]
Субтитры: Нет

Описание: В фильме рассказывается об избирательной кампании Говарда Дина, проводившейся во время первичных выборов кандидата на пост президента США от демократической партии в 2004 году.

IMDB:7.3 (50389) рейтинг
КиноПоиск:7.2 (4586) рейтинг

Сэмпл

Качество: HDRip
Продолжительность: 01:41:11

Формат: AVI
Видео кодек: XviD
Аудио кодек: AC3
Видео: XviD / 720 x 304 / 2.37:1 / 1665 kbps / 23,976 fps
Аудио: Русский / AC3 Dolby Digital / 48 KHz / 384 kbps / 3/2 (L,C,R,l,r) + LFE ch

Дата премьеры (мир): 31 августа 2011 года
Дата премьеры (РФ): 14 февраля 2012 года
"Media Info" ▼ General
Complete name : /mnt/dat0/torrents/tadmin/Martovskie.Idy.2011.DUB.HDRip.XviD.AC3.avi
Format : AVI
Format/Info : Audio Video Interleave
File size : 1.45 GiB
Duration : 1h 41mn
Overall bit rate : 2 059 Kbps
Movie name : The Ides of March (2011)
Genre : Drama
Writing application : VirtualDubModRus 1.5.10.2 (build 2542/release)
Writing library : VirtualDubMod build 2542/release
Original source form/Name : Movie
Comment : HDRip

Video
ID : 0
Format : MPEG-4 Visual
Format profile : Advanced [email protected]
Format settings, BVOP : 1
Format settings, QPel : No
Format settings, GMC : No warppoints
Format settings, Matrix : Custom
Codec ID : XVID
Codec ID/Hint : XviD
Duration : 1h 41mn
Bit rate : 1 584 Kbps
Width : 720 pixels
Height : 304 pixels
Display aspect ratio : 2.35:1
Frame rate : 23.976 fps
Color space : YUV
Chroma subsampling : 4:2:0
Bit depth : 8 bits
Scan type : Progressive
Compression mode : Lossy
Bits/(Pixel*Frame) : 0.302
Stream size : 1.12 GiB (77%)
Writing library : XviD 64

Audio
ID : 1
Format : AC-3
Format/Info : Audio Coding 3
Mode extension : CM (complete main)
Codec ID : 2000
Duration : 1h 41mn
Bit rate mode : Constant
Bit rate : 384 Kbps
Channel(s) : 6 channels
Channel positions : Front: L C R, Side: L R, LFE
Sampling rate : 48.0 KHz
Bit depth : 16 bits
Compression mode : Lossy
Stream size : 278 MiB (19%)
Alignment : Split accross interleaves



ccbaa8d2006ac87f2b2b5566a3fded3ac2f51645Мартовские иды / The Ides of March (Джордж Клуни, Драма, 2011) [HDRip, Полное дублирование] Мартовские иды / The Ides of March (Джордж Клуни, Драма, 2011) [HDRip, Полное дублирование] " />

Аплоадер: Админ, дата: 13-03-2012, 03:15, торрент скачан: 359 раз

Понравилась раздача? Посмотрите эти:
  • Безумный Макс 3: Под куполом грома / Mad Max Beyond Thunderdome (Джордж Мил ...
  • Безумный Макс 3: Под куполом грома / Mad Max Beyond Thunderdome (Джордж Мил ...
  • Мужество / Wymyk (Грег Зглински, драма, 2011) [DVDRip, Любительский (одного ...
  • Звук моего голоса / Sound of My Voice (Зал Батманглидж, триллер, драма, 201 ...
  • 23:59 / 23:59 (Гилберт Чан, Ужасы, 2011) [HDRip, Любительский (одноголосый ...
  • В хлам / Smashed (Джеймс Понсольдт, Драма, комедия, 2012) [HDRip, Профессио ...
  • Покорители Волн / Chasing Mavericks (Майкл Эптед, Кёртис Хэнсон, Драма, спо ...
  • Мартовские иды / The Ides of March (Джордж Клуни / George Clooney, драма, 2 ...
  • Мартовские иды / The Ides of March (Джордж Клуни / George Clooney, драма, 2 ...
  • Мартовские иды / The Ides of March (Джордж Клуни, Драма, 2011) [BDRip, Проф ...
  • Плохая актриса / Bad Actress (Роберт Ли Кинг, комедия, 2011) [DVDRip, Профе ...
  • Мартовские иды / The Ides of March (Джордж Клуни / George Clooney, драма, 2 ...
  • Мартовские иды / The Ides of March (Джордж Клуни, Драма, 2011) [BDRip 1080p ...
  • [EN] Мартовские иды / The Ides of March (Джордж Клуни, Драма, 2011) [BDRip ...
  • Мартовские иды / The Ides of March (Джордж Клуни / George Clooney, драма, 2 ...
  • Влюбленные (Валерий Бебко, Комедия, 2011) [DVDRip, Оригинал]
  • Мартовские иды / The Ides of March (Джордж Клуни, драма, 2011) [HDRip, Проф ...
  • Девушки в опасности / Damsels in Distress (Уит Стиллман, драма, мелодрама, ...
  • Глаз шторма / The Eye of the Storm (Фред Скеписи, Драма, 2011) [HDRip, Проф ...
  • Мемуары гейши / Memoirs of a Geisha (Роб Маршалл, драма, мелодрама, 2005) [ ...
  • Информация
    Посетители, находящиеся в группе Гости, не могут оставлять комментарии к данной публикации.