вход на сайт

Имя пользователя :
Пароль :

Восстановление пароля Регистрация
Спящая красавица / Sleeping Beauty (Джулия Ли, Драма, 2011) [HDRip, Профессиональный (многоголосый)]
Рейтинг:
(голосов: 1)



[img]{THEME}/images/logopost.png[/img]



Спящая красавица / Sleeping Beauty

Год выпуска: 2011
Страна: Австралия
Производство: Big Ears Productions
Жанр: Драма

Режиссёр: Джулия Ли
В ролях: Эмили Браунинг, Рэйчел Блейк, Ивен Лесли, Питер Кэрролл, Крис Хейвуд, Хью Кияс-Бёрн, Бриджитт Баррет, Ханна Белла Боуден, Лес Чэнтери, Беннита Коллингс

Перевод: Профессиональный (многоголосый) [Лицензия]
Субтитры:Нет

Описание
По странному объявлению в газете студентка Люси находит загадочную подработку в частном закрытом клубе. На ночь Люси запирают в Комнате Спящей Красавицы, где она спит под действием сильного наркотика в то время, когда мужчины-клиенты делают с ней то, что им заблагорассудится. С каждым днем Люси все больше и больше хочет узнать, что же происходит с ней в часы, о которых она ничего не помнит.



Доп. информация
Премьеры ▼Премьера (мир)11 мая 2011
Релиз на Blu-Ray 25 августа 2011, «Каравелла DDC»
Релиз на DVD 12 октября 2011, «Кармен Видео»
Mediainfo ▼TextE:CinemaСпящая красавица.avi
General
Complete name : E:CinemaСпящая красавица.avi
Format : AVI
Format/Info : Audio Video Interleave
File size : 1.36 GiB
Duration : 1h 41mn
Overall bit rate : 1 920 Kbps
Writing application : VirtualDubMod 1.5.10.2 (build 2540/release)
Writing library : VirtualDubMod build 2540/release
Video #0
ID : 0
Format : MPEG-4 Visual
Format profile : Advanced [email protected]
Format settings, BVOP : 2
Format settings, QPel : No
Format settings, GMC : 3 warppoints
Format settings, Matrix : Default (MPEG)
Muxing mode : Packed bitstream
Codec ID : XVID
Codec ID/Hint : XviD
Duration : 1h 41mn
Bit rate : 1 527 Kbps
Width : 720 pixels
Height : 384 pixels
Display aspect ratio : 1.875
Frame rate : 23.976 fps
Color space : YUV
Chroma subsampling : 4:2:0
Bit depth : 8 bits
Scan type : Progressive
Compression mode : Lossy
Bits/(Pixel*Frame) : 0.230
Stream size : 1.09 GiB (80%)
Writing library : XviD 64
Audio #1
ID : 1
Format : AC-3
Format/Info : Audio Coding 3
Mode extension : CM (complete main)
Codec ID : 2000
Duration : 1h 41mn
Bit rate mode : Constant
Bit rate : 384 Kbps
Channel(s) : 6 channels
Channel positions : Front: L C R, Side: L R, LFE
Sampling rate : 48.0 KHz
Bit depth : 16 bits
Compression mode : Lossy
Delay relative to video : 350ms
Stream size : 279 MiB (20%)
Alignment : Split accross interleaves
Interleave, duration : 42 ms (1.00 video frame)
Interleave, preload duration : 500 ms[/ code]

Тех. данные
Качество: HDRip (Исходник: BDRip 720p)
Продолжительность: 01:41:43

Формат: AVI
Видео кодек: XviD
Аудио кодек: AС3
Видео: 720x384 (1.88:1), 23.976 fps, XviD MPEG-4 ~1526 kbps avg, 0.23 bit/pixel
Аудио: 48 kHz, AC3 Dolby Digital, 3/2 (L,C,R,l,r) + LFE ch, ~384 kbps


|Cтол заказов| Наши раздачи| Набор в группу| Сказать спасибо|


b5aad20f88525f426bac0250217b04d0cd5417c5Спящая красавица / Sleeping Beauty (Джулия Ли, Драма, 2011) [HDRip, Профессиональный (многоголосый)] Спящая красавица / Sleeping Beauty (Джулия Ли, Драма, 2011) [HDRip, Профессиональный (многоголосый)] " />

Аплоадер: Админ, дата: 19-02-2012, 09:39, торрент скачан: 359 раз

Понравилась раздача? Посмотрите эти:
  • Погнали! / Getaway (Кортни Соломон, Боевик, Криминал, 2013) [HDRip, Професс ...
  • Вирус / Flu (Ким Сон Су, Драма, 2013) [HDTVRip, Любительский (двухголосый з ...
  • Орудие смерти / A-i-deul... (Ли Гю Ман, Триллер, криминал, 2011) [DVDRip, П ...
  • Верное дельце / Une pure affaire (Александр Коффре, Боевик, Комедия, Кримин ...
  • Мужество / Wymyk (Грег Зглински, драма, 2011) [DVDRip, Любительский (одного ...
  • 42 / 42 (Брайан Хелгеленд, драма, биография, спорт, 2013) [BDRip, Профессио ...
  • Ночь тамплиера / Night of the Templar (Пол Сэмпсон, Ужасы, фантастика, боев ...
  • Звук моего голоса / Sound of My Voice (Зал Батманглидж, триллер, драма, 201 ...
  • Слепой поворот / Blind Turn (Роберт Орр, Триллер, драма, детектив, 2012) [W ...
  • 23:59 / 23:59 (Гилберт Чан, Ужасы, 2011) [HDRip, Любительский (одноголосый ...
  • Спящая красавица / Sleeping Beauty (Джулия Ли, драма, мелодрама, 2011) [HDR ...
  • В хлам / Smashed (Джеймс Понсольдт, Драма, комедия, 2012) [HDRip, Профессио ...
  • Спящая красавица / Sleeping Beauty (Джулия Ли, драма, 2011) [DVDRip-AVC, Пр ...
  • Плохая актриса / Bad Actress (Роберт Ли Кинг, комедия, 2011) [DVDRip, Профе ...
  • Доля ангелов / The Angels Share (Кен Лоуч, драма, комедия, 2012) [HDRip, Пр ...
  • Супер циклон / Super Cyclone (Лиз Адамс / Liz Adams, боевик, 2012) [HDRip, ...
  • Захват / Carjacked (Джон Бонито, триллер, 2011)[BDRip, Профессиональный (мн ...
  • Tank Feat. T.I. & Kris Stephens / Compliments [2012, RnB,Hip-Hop, HDRip]
  • Спящая красавица / Sleeping Beauty (Джулия Ли, драма, 2011) [DVD 9, Професс ...
  • Спящая красавица / Sleeping Beauty (Джулия Ли, драма, 2011) [HDRip , Профес ...
  • Стыд / Shame (Стив МакКуин, драма, 2011) [HDRip, Дублированный + Оригинал] ...
  • Супершторм в Сиэтле / Seattle Superstorm (Джейсон Бурк, фантастика, боевик ...
  • Три балбеса / The Three Stooges (Бобби Фаррелли, Питер Фаррелли, Комедия, 2 ...
  • Девушки в опасности / Damsels in Distress (Уит Стиллман, драма, мелодрама, ...
  • Глаз шторма / The Eye of the Storm (Фред Скеписи, Драма, 2011) [HDRip, Проф ...
  • Информация
    Посетители, находящиеся в группе Гости, не могут оставлять комментарии к данной публикации.