вход на сайт

Имя пользователя :
Пароль :

Восстановление пароля Регистрация
Принцип неопределенности / Uncertainty (Скотт МакГихи / Scott McGehee, Дэвид Сигел / David Siegel, драма, мелодрама, 2009) [BDRip-AVC, Профессиональный (многоголосый, закадровый)]
Рейтинг:
(голосов: 1)



[img]{THEME}/images/logopost.png[/img]



Принцип неопределенности / Uncertainty
«The choice is theirs.»

Год выпуска: 2009
Страна: США
Производство: Space Monkey
Жанр: драма, мелодрама

Режиссёр: Скотт МакГихи / Scott McGehee, Дэвид Сигел / David Siegel
В ролях: Линн Коллинз (Kate), Джозеф Гордон-Левитт (Bobby), Ассумпта Серна (Sylvia), Нельсон Ландрэ (Felix), Manoel Felciano (Greg), Дженн Колелла (Emily), Джина Люка (Annabelle), София Люка (Adelaide), Фред Берман (Perez / Dmitri 1, озвучка), Сонни Браун (Bank Employee), Сара Чейз (Alex), Энджел Дэвид (Danny)

Перевод: Профессиональный (многоголосый, закадровый) R5
Субтитры: Отсутствуют

Описание: Бобби находит телефон и сообщает об этом в телефонную компанию. Через 5 минут раздается звонок, и незнакомец, представившись Дмитрием, говорит, что это его телефон, и просит отдать его. Бобби и Дмитрий договариваются о встрече около ресторана. Телефон опять звонит, и уже другой голос в трубке заявляет, что это его телефон, и он хочет его забрать…Дата премьеры (мир): 6 февраля 2009
Качество: BDRip-AVC (Исходник: BDRemux.1080p)
Продолжительность: 01:44:45

Автор рипа: chopper887

Формат: MKV
Видео кодек: x264
Аудио кодек: AC3
Видео: 1044x444 (2.35:1), 23.976 fps, AVC, ~1596 kbps, 0.144 bits/pixel
Аудио: 48 kHz, AC3 Dolby Digital, 3/2 (L,C,R,l,r) + LFE ch, ~384.00 kbps avg
MediaInfo ▼TextVideo
ID : 1
Format : AVC
Format/Info : Advanced Video Codec
Format profile : [email protected]
Format settings, CABAC : Yes
Format settings, ReFrames : 10 frames
Codec ID : V_MPEG4/ISO/AVC
Duration : 1h 45mn
Bit rate : 1 596 Kbps
Width : 1 044 pixels
Height : 444 pixels
Display aspect ratio : 2.35:1
Frame rate : 23.976 fps
Color space : YUV
Chroma subsampling : 4:2:0
Bit depth : 8 bits
Scan type : Progressive
Bits/(Pixel*Frame) : 0.144
Stream size : 1.14 GiB (79%)
Title : Princip.neopredelennosti.chopper887
Writing library : x264 core 116 r2074 2641b9e
Encoding settings : cabac=1 / ref=10 / deblock=1:-2:-1 / analyse=0x3:0x133 / me=umh / subme=11 / psy=1 / psy_rd=0.95:0.05 / mixed_ref=1 / me_range=32 / chroma_me=1 / trellis=2 / 8x8dct=1 / cqm=0 / deadzone=21,11 / fast_pskip=0 / chroma_qp_offset=-3 / threads=12 / sliced_threads=0 / nr=0 / decimate=1 / interlaced=0 / bluray_compat=0 / constrained_intra=0 / bframes=9 / b_pyramid=2 / b_adapt=2 / b_bias=0 / direct=3 / weightb=1 / open_gop=0 / weightp=2 / keyint=250 / keyint_min=23 / scenecut=40 / intra_refresh=0 / rc_lookahead=80 / rc=2pass / mbtree=1 / bitrate=1596 / ratetol=1.0 / qcomp=0.60 / qpmin=0 / qpmax=69 / qpstep=4 / cplxblur=20.0 / qblur=0.5 / ip_ratio=1.40 / aq=1:1.00
Language : English
Default : Yes
Forced : No

Audio
ID : 2
Format : AC-3
Format/Info : Audio Coding 3
Mode extension : CM (complete main)
Codec ID : A_AC3
Duration : 1h 45mn
Bit rate mode : Constant
Bit rate : 384 Kbps
Channel(s) : 6 channels
Channel positions : Front: L C R, Side: L R, LFE
Sampling rate : 48.0 KHz
Bit depth : 16 bits
Compression mode : Lossy
Stream size : 289 MiB (19%)
Title : MVO
Default : Yes
Forced : No





7fe87347c3d5afdae7e4e2e4c1d427e226b92faaПринцип неопределенности / Uncertainty (Скотт МакГихи / Scott McGehee, Дэвид Сигел / David Siegel, драма, мелодрама, 2009) [BDRip-AVC, Профессиональный (многоголосый, закадровый)] Принцип неопределенности / Uncertainty (Скотт МакГихи / Scott McGehee, Дэвид Сигел / David Siegel, драма, мелодрама, 2009) [BDRip-AVC, Профессиональный (многоголосый, закадровый)] " />

Аплоадер: Админ, дата: 30-01-2012, 13:04, торрент скачан: 359 раз

Понравилась раздача? Посмотрите эти:
  • Бэндслэм / Bandslam (Тодд Графф,Комедия, Мелодрама, 2009) [BDRip 1080p, Про ...
  • Повелитель лавин / Prince Avalanche (Дэвид Гордон Грин, Драма, комедия, 201 ...
  • Принцип неопределенности / Uncertainty (Скотт МакГихи, Дэвид Сигел, Драма, ...
  • Коллекционер / The Collector (Уильям Уайлер, Триллер, драма, 1965) [BDRip-A ...
  • Смерть на похоронах / Death at a Funeral (Нил ЛаБут, комедия, 2010) [BDRip ...
  • Отдел 13 / Diamant 13 (Гайллз Бэхат, Боевик, триллер, криминал, 2009) [BDRi ...
  • Запретная любовь / The Edge of Love (Джон Мэйбери, Драма, мелодрама, военны ...
  • Безопасность не гарантируется / Safety Not Guaranteed (Колин Треворроу, фан ...
  • Конец света / Fin (Хорхе Торрегросса, триллер, 2012) [BDRip-AVC, Профессион ...
  • Суррогат / The Sessions (Бен Луин, драма, 2012) [BDRip 720p, Профессиональн ...
  • Похищенная / A Lonely Place to Die (Джулиан Джилби, триллер, криминал, прик ...
  • Лица в толпе / Faces in the Crowd (Жюльен Манья, триллер, драма, 2011) [BDR ...
  • Поворот не туда 4 / Wrong Turn 4 (Деклан О’Брайэн, ужасы, боевик, детектив, ...
  • Робин Гуд [Режиссёрская версия] / Robin Hood [Directors Cut] (Ридли Скотт / ...
  • [3D] Бой за звание чемпиона мира в супертяжелом весе по версии WBA / David ...
  • [3D] Пункт назначения 4 3Д / The Final Destination 3D (Дэвид Р. Эллис / Dav ...
  • Mylene Farmer / Du Temps [2011, Pop, HDTVRip]
  • Хостел 3 / Hostel: Part III (Скотт Спигел / Scott Spiegel, ужасы, триллер, ...
  • Футбольные гладиаторы / Ушедшее время / Awaydays (Пэт Холден, драма, кримин ...
  • На самом дне / The Deep End (Скотт МакГихи, Дэвид Сигел, Триллер, Драма, Кр ...
  • Информация
    Посетители, находящиеся в группе Гости, не могут оставлять комментарии к данной публикации.