вход на сайт

Имя пользователя :
Пароль :

Восстановление пароля Регистрация
Портрет в сумерках (Ангелина Никонова, драма, мелодрама, 2011) [DVDRip-AVC, Не требуется]
Рейтинг:
(голосов: 1)



[img]{THEME}/images/logopost.png[/img]



Портрет в сумерках

Год выпуска: 2011
Страна: Россия
Производство: Барабан
Жанр: драма, мелодрама

Режиссёр: Ангелина Никонова
В ролях: Ольга Дыховичная, Сергей Борисов, Сергей Голюдов, Роман Меринов, Галина Корень, Всеволод Воронов

Перевод: Не требуется
Субтитры: Отсутствуют

Описание: Оказавшись не в том месте, и не в тот час, Марина, попадает в водоворот драматических событий. Пережитые унижение и боль изменяют весь ход ее стабильной благополучной жизни. Марина ищет возможности отомстить. Изо дня в день она возвращается на окраину города, где произошла судьбоносная встреча. Но когда Марине удаётся выследить зачинщика преступления, и когда она готова свершить правосудие, молодая женщина принимает совсем иное решение… Дата премьеры (РФ): 10 ноября 2011, «КиноБарабан»
Качество: DVDRip-AVC
Продолжительность: 01:45:31

Формат: MKV
Видео кодек: x264
Аудио кодек: AC3
Видео: [email protected] (16:9), 25.000 fps, ~1 600 kbps avg, 0.154 bit/pixel
Аудио: 48 kHz, 6 channels (Front: L C R, Side: L R, LFE), 384.00 kbps avg
MediaInfo ▼TextVideo
ID : 1
Format : AVC
Format/Info : Advanced Video Codec
Format profile : [email protected]
Format settings, CABAC : Yes
Format settings, ReFrames : 9 frames
Muxing mode : Header stripping
Codec ID : V_MPEG4/ISO/AVC
Duration : 1h 45mn
Bit rate : 1 600 Kbps
Width : 720 pixels
Height : 576 pixels
Display aspect ratio : 16:9
Frame rate : 25.000 fps
Standard : PAL
Color space : YUV
Chroma subsampling : 4:2:0
Bit depth : 8 bits
Scan type : Progressive
Bits/(Pixel*Frame) : 0.154
Stream size : 1.15 GiB (79%)
Writing library : x264 core 116 r2074 2641b9e
Encoding settings : cabac=1 / ref=9 / deblock=1:0:0 / analyse=0x3:0x133 / me=umh / subme=10 / psy=1 / psy_rd=1.00:0.00 / mixed_ref=1 / me_range=16 / chroma_me=1 / trellis=2 / 8x8dct=1 / cqm=0 / deadzone=21,11 / fast_pskip=0 / chroma_qp_offset=-2 / threads=3 / sliced_threads=0 / nr=0 / decimate=1 / interlaced=0 / bluray_compat=0 / constrained_intra=0 / bframes=5 / b_pyramid=2 / b_adapt=2 / b_bias=0 / direct=3 / weightb=1 / open_gop=0 / weightp=2 / keyint=250 / keyint_min=25 / scenecut=40 / intra_refresh=0 / rc_lookahead=40 / rc=2pass / mbtree=1 / bitrate=1600 / ratetol=1.0 / qcomp=0.60 / qpmin=10 / qpmax=51 / qpstep=4 / cplxblur=20.0 / qblur=0.5 / ip_ratio=1.40 / aq=1:1.00
Language : English
Default : Yes
Forced : No

Audio
ID : 2
Format : AC-3
Format/Info : Audio Coding 3
Mode extension : CM (complete main)
Muxing mode : Header stripping
Codec ID : A_AC3
Duration : 1h 45mn
Bit rate mode : Constant
Bit rate : 384 Kbps
Channel(s) : 6 channels
Channel positions : Front: L C R, Side: L R, LFE
Sampling rate : 48.0 KHz
Bit depth : 16 bits
Compression mode : Lossy
Delay relative to video : 6ms
Stream size : 290 MiB (19%)
Default : Yes
Forced : No





83a8308381ea8a4672aaaedcdc2881f212ad53baПортрет в сумерках (Ангелина Никонова, драма, мелодрама, 2011) [DVDRip-AVC, Не требуется] Портрет в сумерках (Ангелина Никонова, драма, мелодрама, 2011) [DVDRip-AVC, Не требуется] " />

Аплоадер: Админ, дата: 28-01-2012, 11:58, торрент скачан: 359 раз

Понравилась раздача? Посмотрите эти:
  • FLO / NRG [2012, Pop, Dance, MasterRip]
  • Разговор (Сергей Комаров, Драма, 2012) [BDRip-AVC, Hе требуется]
  • Чемпионат Мира по хоккею 2013 / Четвертьфинал / Россия - США / 1 HD [Хокке ...
  • Мой парень - ангел (Вера Сторожева, фэнтези, мелодрама, комедия, приключени ...
  • «Старый» Новый год / New Years Eve (Гэрри Маршалл, Мелодрама, 2011) [BDRip- ...
  • Поворот не туда 4 / Wrong Turn 4 (Деклан О’Брайэн, ужасы, боевик, детектив, ...
  • Черное золото / Black Gold (Жан-Жак Анно, Драма, 2011) [BDRip-AVC, Професси ...
  • Смешарики. Начало (Денис Чернов, мультфильм, комедия, приключения, семейный ...
  • Секс по дружбе / Friends with Benefits (Уилл Глак, драма, мелодрама, комеди ...
  • Ларри Краун / Larry Crowne (Том Хэнкс, драма, мелодрама, комедия, 2011) [BD ...
  • Домашняя работа / The Art of Getting By (Гэвин Вьесен, драма, мелодрама, 20 ...
  • Три метра над уровнем неба / Tres metros sobre el cielo (Фернандо Гонзалез ...
  • Chelsea - Season Review 2011-12 / Челси - Обзор Сезона 2011-12 [ Футбол, 20 ...
  • Mylene Farmer / Du Temps [2011, Pop, HDTVRip]
  • Mylene Farmer / Bleu Noir [2011, Pop, HDTVRip]
  • СчастливоСпасибоЕщеПожалуйста / HappyThankYouMorePlease (Джош Рэднор / Josh ...
  • Портрет в сумерках (Ангелина Никонова, драма, мелодрама, 2011) [DVDRip, Не ...
  • Портрет в сумерках (Ангелина Никонова, драма, мелодрама, 2011) [DVDRip, Не ...
  • Портрет в сумерках (Ангелина Никонова, драма, мелодрама, 2011) [DVDRip, Не ...
  • Футбольные гладиаторы / Ушедшее время / Awaydays (Пэт Холден, драма, кримин ...
  • Информация
    Посетители, находящиеся в группе Гости, не могут оставлять комментарии к данной публикации.