вход на сайт

Имя пользователя :
Пароль :

Восстановление пароля Регистрация
Жила-была одна баба (Андрей Смирнов, драма, история, 2011) [BDRip, Оригинал]
Рейтинг:
(голосов: 1)



[img]{THEME}/images/logopost.png[/img]



Жила-была одна баба

Cлоган: «Те, кто не помнят прошлого, обречены переживать его вновь...»

Год выпуска: 2011
Страна:
Выпущено: Наше Кино
Жанр: драма, история

Режиссёр: Андрей Смирнов
В главных ролях: Дарья Екамасова, Нина Русланова, Всеволод Шиловский, Евдокия Германова, Юрий Шевчук, Алексей Серебряков, Алексей Алексеев, Михаил Евланов, Егор Клейменов, Мария Клюквина

Перевод: Оригинал
Субтитры: Отсутствуют

О фильме: История частной жизни одной женщины и четверых ее мужчин. Главная героиня — неграмотная крестьянка, и действие фильма начинается с ее свадьбы в 1909 году, когда девушку из нищей семьи взяли в богатую, а кончается в 1921 году Антоновским восстанием.
Премьеры ▼Премьера (РФ): 27 октября 2011, «Наше Кино»
Релиз на DVD: 24 ноября 2011, «CP-Digital»
Релиз на Blu-Ray: 24 ноября 2011, «CP-Digital»



Релиз от:
Автор рипа: AngelOfTrue

Качество: BDRip [Исходник Blu-ray 1080p]
Продолжительность: 02:35:39

Формат: AVI
Видео кодек: XviD
Аудио кодек: AC3
Видео: 720x304 (2.37:1), 24 fps, XviD build 64, 2193 kbps avg, 0.42 bit/pixel
Аудио : 48 kHz, AC3 Dolby Digital, 3/2 (L,C,R,l,r) + LFE ch, 448 kbps avg
Media Info ▼TextФормат : AVI
Формат/Информация : Audio Video Interleave
Профайл формата : OpenDML
Размер файла : 2.89 GiB
Продолжительность : 2h 35mn
Общий поток : 2 653 Kbps
Название фильма : Zhila.byla.odna.baba.2011.RUS.BDRip.XviD.AC3.-HQCLUB
Режиссёр : AngelOfTrue
Жанр : R.G.HQClub
Программа кодирования : VirtualDubMod 1.5.10.3 | www.virtualdub-fr.org || (build 2550/release)
Формат оригинала/Имя : Movie
Примечание : 24.11.2011

Video
Идентификатор : 0
Формат : MPEG-4 Visual
Профайл формата : Advanced [email protected]
Параметры BVOP формата : Yes
Параметры QPel формата : No
Параметры GMC формата : No warppoints
Параметры матрицы формата : Custom
Идентификатор кодека : XVID
Идентификатор кодека/Подсказка : XviD
Продолжительность : 2h 35mn
Битрейт : 2 195 Kbps
Ширина : 720 pixels
Высота : 304 pixels
Соотношение кадра : 2.35:1
Частота кадров : 24.000 fps
ColorSpace : YUV
ChromaSubsampling : 4:2:0
BitDepth/String : 8 bits
Тип развёртки : Progressive
Бит/(Пиксели*Кадры) : 0.418
Размер потока : 2.39 GiB (83%)
Библиотека кодирования : XviD 64

Audio
Идентификатор : 1
Формат : AC-3
Формат/Информация : Audio Coding 3
Format_Settings_ModeExtension : CM (complete main)
Идентификатор кодека : 2000
Продолжительность : 2h 35mn
Вид битрейта : Constant
Битрейт : 448 Kbps
Канал(ы) : 6 channels
Расположение каналов : Front: L C R, Side: L R, LFE
Частота : 48.0 KHz
BitDepth/String : 16 bits
Размер потока : 499 MiB (17%)
Выравнивание : Split accross interleaves
Продолжительность промежутка : 42 ms (1.00 video frame)
Время предзагрузки промежутка : 500 ms





bea7ad4bc9398d0b47581825616c0c5d7f7f304aЖила-была одна баба (Андрей Смирнов, драма, история, 2011) [BDRip, Оригинал] Жила-была одна баба (Андрей Смирнов, драма, история, 2011) [BDRip, Оригинал] " />

Аплоадер: Админ, дата: 24-11-2011, 19:38, торрент скачан: 359 раз

Понравилась раздача? Посмотрите эти:
  • Бойфренд из будущего / About Time (Ричард Кёртис, Фантастика, драма, комеди ...
  • Одноклассники 2 / Grown Ups 2 (Деннис Дуган, Комедия, 2013) [BDRip, Професс ...
  • Околофутбола (Антон Борматов, драма, криминал, 2013) [DVDRip, Не требуется] ...
  • Околофутбола (Антон Борматов, драма, криминал, 2013) [DVDRip, Не требуется] ...
  • Мария - королева Шотландии / Mary, Queen of Scots (Чарльз Джэррот, Драма, и ...
  • Тринадцать дней / Thirteen Days (Роджер Дональдсон, Триллер, драма, история ...
  • Мир без конца / World Without End // Сезон 1, эпизоды с 1 по 8 (из 8) (трил ...
  • Молчание Жанны / Jeanne captive (Филипп Рамос, Драма, история, 2011) [SATRi ...
  • Криминальная фишка от Генри / Henrys Crime (Малькольм Венвилль, мелодрама, ...
  • Жила-была одна баба (Андрей Смирнов, Драма, 2011) [BDRip - AVC, Оригинал]
  • Злые птицы: Хэллоуин / Angry Birds: HamOWeen (Джей Ройвайнен, Мультфильм, к ...
  • Боец из трущоб / Gutter King (Кейт Алан Моррис / Keith Alan Morris, боевик, ...
  • Черная Маска / Black Mask (Дэниэл Ли, фантастика, боевик, триллер, комедия, ...
  • Рейдер (Всеволод Аравин, драма, криминал, 2011) [BDRip, Оригинал]
  • Жила-была одна баба (Андрей Смирнов, драма, история, 2010) [HDRip, Не требу ...
  • Приключения Тинтина: Тайна Единорога / The Adventures of Tintin (Стивен Спи ...
  • Баллада о бомбере (Виталий Воробьев, военный, 2011) [BDRip, не требуется]
  • Нет мужчин - нет проблем / Without Men (Габриела Тальявини, Комедия, 2011) ...
  • 100 миллионов евро / Les Tuche (Оливье Барру, комедия, 2011) [HDRip, Профе ...
  • Гениальный папа / Father of Invention (Трент Купер, Драма, комедия, 2010) [ ...
  • Жизнь за гранью / After.Life (Агнешка Войтович-Восло, Ужасы, триллер, драм ...
  • Глаз шторма / The Eye of the Storm (Фред Скеписи, Драма, 2011) [HDRip, Проф ...
  • Андрей Рублев (Андрей Тарковский, Драма, история, 1966) [HDRip, Не требуетс ...
  • Шаг вперед 4 / Step Up Revolution (Скотт Спир, Драма, мелодрама, музыка, 20 ...
  • Сдохни, Джон Такер / John Tucker Must Die (Бетти Томас, мелодрама, комедия, ...
  • Информация
    Посетители, находящиеся в группе Гости, не могут оставлять комментарии к данной публикации.