вход на сайт

Имя пользователя :
Пароль :

Восстановление пароля Регистрация
Ельцин. Три дня в августе (Александр Мохов, Драма, Исторический, 2011) [SATRip, Не требуется]
Рейтинг:
(голосов: 1)



[img]{THEME}/images/logopost.png[/img]



Ельцин. Три дня в августе

Год выпуска: 2011
Страна: Россия

Производство: Мостелефильм
Жанр: Драма, Исторический

Режиссёр: Александр Мохов
В ролях: Дмитрий Назаров, Александр Сирин, Владимир Стеклов, Феликс Антипов, Елена Валюшкина, Павел Данилов, Дарья Калмыкова, Светлана Антонова, Владимир Юматов, Александр Клюквин, Валентина Шарыкина, Игорь Старосельцев, Александр Мохов, Елена Лямина, Олег Голуб, Михаил Хмуров, Шерхан Абилов

Перевод: Не требуется
Субтитры: Отсутствуют

Описание: Фильм основан на реальных событиях. 1991 год. Борис Ельцин, находясь на даче, узнает о том, что Горбачев блокирован в Форосе… По заявлению советского руководства, образуется Государственный комитет по чрезвычайному положению в СССР (ГКЧП СССР), а Янаев объявлен и. о. Президента СССР. Многие советуют бежать из страны, но Ельцин принимает решение — он едет в Москву к Белому дому, чтобы возглавить оппозицию…





Доп. информация:

Премьеры ▼• премьера (РФ): 16 сентября 2011

MediaInfo ▼Text
General
Format : AVI
Format/Info : Audio Video Interleave
File size : 1.03 GiB
Duration : 1h 36mn
Overall bit rate : 1 527 Kbps
Writing library : VirtualDub build 30009/release
Video #0
ID : 0
Format : MPEG-4 Visual
Format profile : Advanced [email protected]
Format settings, BVOP : 2
Format settings, QPel : No
Format settings, GMC : No warppoints
Format settings, Matrix : Default (MPEG)
Muxing mode : Packed bitstream
Codec ID : XVID
Codec ID/Hint : XviD
Duration : 1h 36mn
Bit rate : 1 389 Kbps
Width : 704 pixels
Height : 400 pixels
Display aspect ratio : 16:9
Frame rate : 25.000 fps
Color space : YUV
Chroma subsampling : 4:2:0
Bit depth : 8 bits
Scan type : Progressive
Compression mode : Lossy
Bits/(Pixel*Frame) : 0.197
Stream size : 959 MiB (91%)
Writing library : XviD 58
Audio #1
ID : 1
Format : MPEG Audio
Format version : Version 1
Format profile : Layer 3
Mode : Joint stereo
Mode extension : MS Stereo
Codec ID : 55
Codec ID/Hint : MP3
Duration : 1h 36mn
Bit rate mode : Constant
Bit rate : 128 Kbps
Channel(s) : 2 channels
Sampling rate : 48.0 KHz
Compression mode : Lossy
Stream size : 88.4 MiB (8%)
Alignment : Split accross interleaves
Interleave, duration : 40 ms (1.00 video frame)
Interleave, preload duration : 500 ms



Качество: SATRip
Продолжительность: 01:36:32 час.

Формат: AVI
Видео кодек: XviD
Аудио кодек: MP3
Видео: 704x400, 25.000 fps, ~1389 kbps avg, 0.197 bit/pixel
Аудио: 48 kHz, 2 ch, ~128.00 kbps avg



5a35d8aa8e49f07a6fb7ed74fe7dbe50e5a2326fЕльцин. Три дня в августе (Александр Мохов, Драма, Исторический, 2011) [SATRip, Не требуется] Ельцин. Три дня в августе (Александр Мохов, Драма, Исторический, 2011) [SATRip, Не требуется] " />

Аплоадер: Админ, дата: 18-09-2011, 00:31, торрент скачан: 359 раз

Понравилась раздача? Посмотрите эти:
  • Чемпионат Италии 2012-13 / 36-й тур / Рома — Кьево / НТВ+ [07.05.2013, SD, ...
  • Ельцин. Три дня в августе (Александр Мохов, драма, история, 2011) [DVDRip-A ...
  • Молодежный чемпионат мира 2012 (U-20). Четвертьфинал: Россия - Чехия [02.01 ...
  • Чемпионат Германии 2011-12 / 28-й тур / Боруссия Д - Штутгарт / НТВ+ [Футбо ...
  • Чемпионат Испании 2011-12 / 36-й тур / Реал Мадрид - Севилья / НТВ+ [Футбол ...
  • Чемпионат Англии 2011-12 / 36 тур / Челси - Куинз Парк Рейнджерс / Спорт 1 ...
  • Чемпионат Европы 2012 / Группа C / 1-й тур / Ирландия — Хорватия / ТРК Футб ...
  • Олимпиада 2012 / Мужчины / Группа D / 1-й тур / Испания — Япония / НТВ+ [Фу ...
  • Олимпиада 2012 / Футбол / Мужчины / Группа A / 3-й тур / Великобритания - У ...
  • Ельцин.Три дня в августе (Александр Мохов, драма, история, 2011)[ TVRip, не ...
  • Чемпионат Англии 2011-12 / 32-й тур / Обзор тура / Спорт 1 [Футбол, 10.04.2 ...
  • Чемпионат Англии 2011-12 / 35 тур / Манчестер Юнайтед - Эвертон / Спорт 1 [ ...
  • Чемпионат Англии 2011-2012 / Championship / 45-й Тур / Обзор Матчей / НТВ+ ...
  • NBA Finals 2012 / Sportscenter / В преддверии 3-ей игры / Viasat Sport [Бас ...
  • Бой за титул чемпиона мира в первом полусреднем весе по версии IBO / Хабиб ...
  • NBA Finals 2012 / Sportscenter / Четвертая игра под микроскопом / Viasat Sp ...
  • Олимпийский квалификационный турнир 2012 / Венесуэла / Мужчины / Группа C / ...
  • Чемпионат России 2012-13 / 1-й тур / Мордовия - Локомотив / НТВ+ [Футбол, 2 ...
  • Олимпиада 2012 / Женщины, Мужчины / Плавание / Квалификация / НТВ+ [30.07.2 ...
  • Товарищеский матч / Звёзды Малайзии - Манчестер Сити / ТК Футбол [Футбол, 2 ...
  • Информация
    Посетители, находящиеся в группе Гости, не могут оставлять комментарии к данной публикации.