вход на сайт

Имя пользователя :
Пароль :

Восстановление пароля Регистрация
Привет, Джули! / Flipped (Роб Райнер, драма, мелодрама, комедия , 2010) [HDRip, Профессиональный (многоголосый, закадровый)] by Torrent Club
Рейтинг:
(голосов: 1)



[img]{THEME}/images/logopost.png[/img]



Привет, Джули! / Flipped

Слоган "You never forget your first love."

Год выпуска: 2010
Страна: США
Производство: Castle Rock Entertainment
Жанр: драма, мелодрама, комедия

Режиссёр: Роб Райнер
В ролях: Мадлен Кэрролл, Каллэн МакОлиффи, Ребекка Де Морнэй, Энтони Эдвардс, Джон Махони, Пенелопа Энн Миллер, Эйдан Куинн, Кевин Уайзман, Морган Лили, Райан Кетцнер

Перевод: Профессиональный (многоголосый, закадровый)
Субтитры: отсутствуют

Описание:
Джули Бейкер, увидев Брайса Лоски, сразу же в него влюбляется. А сам Брайс наоборот — сразу же начинает питать антипатию к Джули. Но потом, после восьмого класса Джули теряет интерес к нему, а он — наоборот начинает находить в Джули что-то интересное.



Доп. информация:

Релиз от :
Премьера: ▼премьера (мир) 6 августа 2010, ...
релиз на DVD 27 января 2011, CP-Digital

Тех. данные:
Качество: HDRip
Продолжительность: 01:29:45 час.

Формат: AVI,
Видео кодек: XviD
Аудио кодек: MP3
Видео: 720x400 (1.80:1), 23.976 fps, XviD build 50 ~1021 kbps avg, 0.15 bit/pixel
Аудио: 48 kHz, MPEG Layer 3, 2 ch, ~128.00 kbps avg
"MediaInfo" ▼TextОбщее
Полное имя : C:UsersШапагатDownloadsPrivet.Dzhuli!.2010.RUS.hdrip.by.torrent-club.avi
Формат : AVI
Формат/Информация : Audio Video Interleave
Размер файла : 744 Мбайт
Продолжительность : 1 ч. 29 м.
Общий поток : 1159 Кбит/сек
Режиссёр : Rip by Torrent Club / Simple_guy
Программа кодирования : VirtualDubMod 1.5.10.3 | www.virtualdub-fr.org || (build 2550/release)

Видео
Идентификатор : 0
Формат : MPEG-4 Visual
Профиль формата : Advanced [email protected]
Параметр BVOP формата : 2
Параметр QPel формата : Нет
Параметр GMC формата : Без точки перехода
Параметр матрицы формата : Default (H.263)
Идентификатор кодека : XVID
Идентификатор кодека/Подсказка : XviD
Продолжительность : 1 ч. 29 м.
Битрейт : 1022 Кбит/сек
Ширина : 720 пикс.
Высота : 400 пикс.
Соотношение сторон : 16:9
Частота кадров : 23,976 кадр/сек
Цветовое пространство : YUV
Подвыборка цветности : 4:2:0
Битовая глубина : 8 бит
Тип развёртки : Прогрессивная
Метод сжатия : С потерями
Бит/(Пиксели*Кадры) : 0.148
Размер потока : 656 Мбайт (88%)
Библиотека кодирования : XviD 1.2.1 (UTC 2008-12-04)

Аудио
Идентификатор : 1
Формат : MPEG Audio
Версия формата : Version 1
Профиль формата : Layer 3
Режим : Joint stereo
Идентификатор кодека : 55
Идентификатор кодека/Подсказка : MP3
Продолжительность : 1 ч. 29 м.
Вид битрейта : Постоянный
Битрейт : 128 Кбит/сек
Каналы : 2 канала
Частота : 48,0 КГц
Метод сжатия : С потерями
Размер потока : 82,2 Мбайт (11%)
Выравнивание : Соединение по промежуткам
Продолжительность промежутка : 42 мс. (1,00 видеокадр)
Время предзагрузки промежутка : 504 ms
Библиотека кодирования : LAME3.98r
Настройки программы : -m j -V 4 -q 2 -lowpass 17 -b 128



Раздача группы: Наши раздачи
Набор в группу




82ab269d11a82e16a32f5e4d4ff17a286247979aПривет, Джули! / Flipped (Роб Райнер, драма, мелодрама, комедия , 2010) [HDRip, Профессиональный (многоголосый, закадровый)] by Torrent Club Привет, Джули! / Flipped (Роб Райнер, драма, мелодрама, комедия , 2010) [HDRip, Профессиональный (многоголосый, закадровый)] by Torrent Club " />

Аплоадер: Админ, дата: 13-07-2011, 15:26, торрент скачан: 359 раз

Понравилась раздача? Посмотрите эти:
  • Грязная кампания за честные выборы / The Campaign (Джей Роуч , Комедия,201 ...
  • Слежка / The Letter (Джей Ананья, Триллер, драма, 2012) [DVDRip, Профессион ...
  • Привет, мне пора / Hello I Must Be Going (Тодд Луисо, драма, мелодрама, ком ...
  • Плохой хороший полицейский / Bon Cop, Bad Cop (Эрик Кануэль, боевик, трилле ...
  • Рождённый свободным / The Colt (Елена Ланская, драма, боевик, история, 200 ...
  • Злые птицы: Хэллоуин / Angry Birds: HamOWeen (Джей Ройвайнен, Мультфильм, к ...
  • Кажется, я люблю свою жену / I Think I Love My Wife (Крис Рок, Драма, мелод ...
  • Темный сахар / Brown Sugar (Рик Фамуйива, Драма, мелодрама, комедия, музыка ...
  • Бог любви / God of Love (Люк Мэзени, Короткометражка, фэнтези, комедия, мел ...
  • Любовь по расписанию / Поезд (Сергей Мезенцев, мелодрама, 2012) [HDTVRip, Н ...
  • Кейси Джонс / Casey Jones (Иларион Бэнкс, Короткометражка, фэнтези, боевик, ...
  • Заместитель / Il supplente (Андреа Жублин, Короткометражка, комедия, 2007) ...
  • Дорога на... / Road to (Таисия Игуменцева, Комедия, короткометражный, 2011) ...
  • Покорить высоту / Take It to the Limit (Сэм Кит / Sam Kieth, семейный, 2000 ...
  • Светлячок. Воссоединение Коричневых плащей к 10 годовщине / Firefly 10th An ...
  • А что насчет тебя? / How About You (Энтони Бирн, Драма, комедия, 2007) [DVD ...
  • Привет, Джули! / Flipped (Роб Райнер, драма, мелодрама, 2010) [HDRip, Профе ...
  • Детский душ / Baby Shower (Pablo Illanes, Ужасы, 2011) [DVDRip, Любительски ...
  • Аппалуза / Appaloosa (Эд Харрис, Драма, вестерн, криминал, 2008) [HDRip, Пр ...
  • Лопе де Вега: Распутник и соблазнитель / Lope ( Андруча Уэддингтон / Andruc ...
  • Дикая штучка / Wild Target (Джонатан Линн, боевик, драма, комедия, криминал ...
  • Часто задаваемые вопросы о путешествиях во времени / Frequently Asked Quest ...
  • Часто задаваемые вопросы о путешествиях во времени / Frequently Asked Quest ...
  • Привет, Джули! / Flipped (Роб Райнер, Драма, мелодрама, комедия, 2010) [BDR ...
  • Пожирая живых / Ночь зомби / Zombie Night (Дэвид Дж. Фрэнсис, Ужасы, комеди ...
  • Информация
    Посетители, находящиеся в группе Гости, не могут оставлять комментарии к данной публикации.