вход на сайт

Имя пользователя :
Пароль :

Восстановление пароля Регистрация
Лопе де Вега: Распутник и соблазнитель / Lope ( Андруча Уэддингтон / Andrucha Waddington, драма, биография, 2010) [DVDRip, Профессиональный (многоголосый закадровый)]
Рейтинг:
(голосов: 1)



[img]{THEME}/images/logopost.png[/img]



Лопе де Вега: Распутник и соблазнитель / Lope

Год выпуска: 2010
Страна: Бразилия,Испания
Производство:Antena 3 Films, Conspiração
Жанр: драма, биография

Режиссёр: Андруча Уэддингтон / Andrucha Waddington
В ролях: Леонор Уотлинг, Соня Брага, Луис Тосар, Пилар Лопес де Айяла, Антонио де ла Торре, Альберто Эмманн, Марина Салас, Мигель Анхель Муньос, Селтон Меллу, Хуан Диего...

Перевод: Профессиональный (многоголосый закадровый)
Субтитры: нет

Описание: XVI век, Испания. Одаренный молодой драматург Лопе де Вега возвращается в Мадрид с войны, полный амбиций, стремления жить и писать… Но за душой у него ни гроша, поэтому он вынужден работать переписчиком при более известных авторах. Лопе влюбляется в Елену, восхитительную дочь своего босса. Ее отец, руководящий самой успешной театральной труппой в городе, никогда не одобрил бы такой связи, поэтому Лопе и Елена вынуждены видеться тайком. Но у Елены есть и другая тайна...

IMDB: 6.40 (260)



Качество: DVDRip
Продолжительность: 01:42:32

Формат: avi
Видео кодек: XViD
Аудио кодек: МР3
Видео: 720x304 (2.35:1), 25.000 fps, XViD ~880 kbps avg, 0.161 bit/pixel
Аудио: 48 kHz, МР3, 2 ch, 128.00 kbps Constant

Премьера (мир): 3 сентября 2010
Премьера (РФ): 2 июня 2011, «Каравелла DDC»
Релиз на DVD: 29 июня 2011, «Кармен Видео»


"MediaInfo" ▼Общее
Полное имя : Lope.De.Vega.2010.P.DVDRip.745MB.avi
Формат : AVI
Формат/Информация : Audio Video Interleave
Размер файла : 747 Мбайт
Продолжительность : 1 ч. 42 м.
Общий поток : 1018 Кбит/сек
Программа кодирования : VirtualDubMod 1.5.10.3 | www.virtualdub-fr.org || (build 2550/release)
Библиотека кодирования : VirtualDubMod build 2550/release

Видео
Идентификатор : 0
Формат : MPEG-4 Visual
Профиль формата : Advanced [email protected]
Параметр BVOP формата : 1
Параметр QPel формата : Нет
Параметр GMC формата : Без точки перехода
Параметр матрицы формата : Выборочная
Идентификатор кодека : XVID
Идентификатор кодека/Подсказка : XviD
Продолжительность : 1 ч. 42 м.
Битрейт : 880 Кбит/сек
Ширина : 720 пикс.
Высота : 304 пикс.
Соотношение сторон : 2,35:1
Частота кадров : 25,000 кадр/сек
Цветовое пространство : YUV
Подвыборка цветности : 4:2:0
Битовая глубина : 8 бит
Тип развёртки : Прогрессивная
Метод сжатия : С потерями
Бит/(Пиксели*Кадры) : 0.161
Размер потока : 646 Мбайт (86%)
Библиотека кодирования : XviD 1.2.1 (UTC 2008-12-04)

Аудио
Идентификатор : 1
Формат : MPEG Audio
Версия формата : Version 1
Профиль формата : Layer 3
Идентификатор кодека : 55
Идентификатор кодека/Подсказка : MP3
Продолжительность : 1 ч. 42 м.
Вид битрейта : Постоянный
Битрейт : 128 Кбит/сек
Каналы : 2 канала
Частота : 48,0 КГц
Метод сжатия : С потерями
Размер потока : 93,9 Мбайт (13%)
Выравнивание : Соединение по промежуткам
Продолжительность промежутка : 40 мс. (1,00 видеокадр)
Время предзагрузки промежутка : 504 ms


60e85399d4ba1a78a0f7822b568790edb088f9eaЛопе де Вега: Распутник и соблазнитель / Lope ( Андруча Уэддингтон / Andrucha Waddington, драма, биография, 2010) [DVDRip, Профессиональный (многоголосый закадровый)] Лопе де Вега: Распутник и соблазнитель / Lope ( Андруча Уэддингтон / Andrucha Waddington, драма, биография, 2010) [DVDRip, Профессиональный (многоголосый закадровый)] " />

Аплоадер: Админ, дата: 3-07-2011, 16:48, торрент скачан: 359 раз

Понравилась раздача? Посмотрите эти:
  • Околофутбола (Антон Борматов, драма, криминал, 2013) [DVDRip, Не требуется] ...
  • Грязная кампания за честные выборы / The Campaign (Джей Роуч , Комедия,201 ...
  • Слежка / The Letter (Джей Ананья, Триллер, драма, 2012) [DVDRip, Профессион ...
  • Астрал на улице Арлетт / 388 Arletta Avenue (Рэндолл Коул, Триллер, 2011) [ ...
  • Рождённый свободным / The Colt (Елена Ланская, драма, боевик, история, 200 ...
  • Отбой / Taps (Харольд Беккер, Драма, 1981) [DVDRip, Профессиональный (много ...
  • Путешествие на дно моря / Voyage to the Bottom of the Sea (Ирвин Аллен / I ...
  • Кажется, я люблю свою жену / I Think I Love My Wife (Крис Рок, Драма, мелод ...
  • Темный сахар / Brown Sugar (Рик Фамуйива, Драма, мелодрама, комедия, музыка ...
  • Огненный шторм / Firestorm (Дин Семлер, Боевик, Триллер, 1998) [DVDRip, Про ...
  • Бог любви / God of Love (Люк Мэзени, Короткометражка, фэнтези, комедия, мел ...
  • Любовь по расписанию / Поезд (Сергей Мезенцев, мелодрама, 2012) [HDTVRip, Н ...
  • Вечерний Ургант // Сезон 2. Выпуск 63 (ТВ-шоу, 20.12.2012) [SATRip, Не треб ...
  • Кейси Джонс / Casey Jones (Иларион Бэнкс, Короткометражка, фэнтези, боевик, ...
  • Заместитель / Il supplente (Андреа Жублин, Короткометражка, комедия, 2007) ...
  • Покорить высоту / Take It to the Limit (Сэм Кит / Sam Kieth, семейный, 2000 ...
  • Светлячок. Воссоединение Коричневых плащей к 10 годовщине / Firefly 10th An ...
  • А что насчет тебя? / How About You (Энтони Бирн, Драма, комедия, 2007) [DVD ...
  • У дьявола нет лица / Plasterhead (Кевин Хиггинс / Kevin Higgins, ужасы, три ...
  • Детский душ / Baby Shower (Pablo Illanes, Ужасы, 2011) [DVDRip, Любительски ...
  • Крест / Cross (Патрик Дархэм, боевик, 2011) [DVDRip, Профессиональный (мног ...
  • Привет, Джули! / Flipped (Роб Райнер, драма, мелодрама, комедия , 2010) [HD ...
  • Лопе де Вега: Распутник и соблазнитель / Lope (Андруча Уэддингтон, драма, б ...
  • Лопе де Вега: Распутник и соблазнитель / Lope (Андруча Уэддингтон,драма, би ...
  • Пожирая живых / Ночь зомби / Zombie Night (Дэвид Дж. Фрэнсис, Ужасы, комеди ...
  • Информация
    Посетители, находящиеся в группе Гости, не могут оставлять комментарии к данной публикации.