вход на сайт

Имя пользователя :
Пароль :

Восстановление пароля Регистрация
Поле битвы - Земля. Сага 3000-го года / Battlefield Earth: A Saga of the Year 3000 (Роджер Кристиан, фантастика, боевик, 2000) [DVDRip, Дубляж]
Рейтинг:
(голосов: 1)



[img]{THEME}/images/logopost.png[/img]



•Поле битвы - Земля. Сага 3000-го года / Battlefield Earth: A Saga of the Year 3000 •
♥ Год выпуска: 2000
♥ Страна: США
♥ Производство: Warner Bros. Pictures
♥ Жанр: фантастика, боевик

♥ Режиссёр: Роджер Кристиан
♥ В ролях: Джон Траволта, Бэрри Пеппер, Форест Уитакер, Ким Коутс, Сабина Карсенти, Майкл Бирн, Кристиан Тессьер, Сильвен Ландри, Ричард Тайсон, Кристофер Фриман

♥ Перевод: Дубляж
♥ Субтитры: Отсутствуют

♥ Описание: 3000 год. Уже десять веков Землей правит жестокая раса пришельцев. Поработив людей, гиганты Сайклосы превратили завоеванную планету в источник сырья для своего далекого мира. Избежавшие смерти и рабства земляне первобытными племенами рассеялись по горам и лесам. Но однажды, получив доступ к оружию и технологиям пришельцев, они поднимают восстание. Начинается новая звездная война, в которой одна из цивилизаций обречена на уничтожение


MediaInfo ▼
TextGeneral
Complete name : C:Pole_bitvy_Zemlya.avi
Format : AVI
Format/Info : Audio Video Interleave
File size : 745 MiB
Duration : 1h 52mn
Overall bit rate : 923 Kbps
Writing application : VirtualDubMod 1.5.10.2 (build 2540/release)
Writing library : VirtualDubMod build 2540/release
Video #0
ID : 0
Format : MPEG-4 Visual
Format profile : Advanced [email protected]
Format settings, BVOP : 1
Format settings, QPel : No
Format settings, GMC : No warppoints
Format settings, Matrix : Default (MPEG)
Codec ID : XVID
Codec ID/Hint : XviD
Duration : 1h 52mn
Bit rate : 786 Kbps
Width : 688 pixels
Height : 288 pixels
Display aspect ratio : 2.40:1
Frame rate : 25.000 fps
Color space : YUV
Chroma subsampling : 4:2:0
Bit depth : 8 bits
Scan type : Progressive
Compression mode : Lossy
Bits/(Pixel*Frame) : 0.159
Stream size : 634 MiB (85%)
Writing library : XviD 1.2.1 (UTC 2008-12-04)
Audio #1
ID : 1
Format : MPEG Audio
Format version : Version 1
Format profile : Layer 3
Codec ID : 55
Codec ID/Hint : MP3
Duration : 1h 52mn
Bit rate mode : Constant
Bit rate : 128 Kbps
Channel(s) : 2 channels
Sampling rate : 48.0 KHz
Compression mode : Lossy
Stream size : 103 MiB (14%)
Alignment : Aligned on interleaves
Interleave, duration : 40 ms (1.00 video frame)
Interleave, preload duration : 504 ms
Writing library : LAME3.97
Encoding settings : -m s -V 4 -q 2 -lowpass 17 -b 128
♥ Качество: DVDRip
♥ Продолжительность: 01:52:51

♥ Формат: AVI
♥ Видео кодек: XviD
♥ Аудио кодек: MP3
♥ Видео: 688x288 (2.40:1), 25 fps, XviD build 50 ~786 kbps avg, 0.159 bit/pixel
♥ Аудио1: 48 kHz, MPEG Layer 3, 2 ch, ~128.00 kbps avg


♥ Дата премьеры (мир): 10 мая 2000
♥ Дата премьеры (РФ): 28 июня 2000


Релиз Группы "Virtus"

Стол заказов / Вступление в РГ / Благодарности, критика и другое



c10a3ecccb8ad48a8227be869d213045c81226b5Поле битвы - Земля. Сага 3000-го года / Battlefield Earth: A Saga of the Year 3000 (Роджер Кристиан, фантастика, боевик, 2000) [DVDRip, Дубляж] Поле битвы - Земля. Сага 3000-го года / Battlefield Earth: A Saga of the Year 3000 (Роджер Кристиан, фантастика, боевик, 2000) [DVDRip, Дубляж] " />

Аплоадер: Админ, дата: 6-01-2013, 15:44, торрент скачан: 359 раз

Понравилась раздача? Посмотрите эти:
  • Поле битвы: Земля / Battlefield Earth: A Saga of the Year 3000 [Extended C ...
  • Мужество / Wymyk (Грег Зглински, драма, 2011) [DVDRip, Любительский (одного ...
  • Вампирская сага / True Bloodthirst (Тодор Чапканов, Ужасы,Фантастика,Боевик ...
  • Чемпионат Италии 2012-13 / 36-й тур / Рома — Кьево / НТВ+ [07.05.2013, SD, ...
  • Скуби-Ду! Маска Синего Сокола / Scooby-Doo! Mask Of The Blue Falcon (Оливье ...
  • Лучший стрелок / Top Gun (Тони Скотт, боевик, драма, мелодрама, 1986) [BDRi ...
  • Псы войны / The Dogs of War (Джон Ирвин, боевик, драма, приключения, военны ...
  • Молодежный чемпионат мира 2012 (U-20). Четвертьфинал: Россия - Чехия [02.01 ...
  • Чемпионат Европы 2012 / Группа C / 1-й тур / Ирландия — Хорватия / ТРК Футб ...
  • Чемпионат Европы 2012 / Группа D / 1-й тур / Украина - Швеция / Спорт 1 [11 ...
  • Олимпиада 2012 / Мужчины / Группа D / 1-й тур / Испания — Япония / НТВ+ [Фу ...
  • Tank Feat. T.I. & Kris Stephens / Compliments [2012, RnB,Hip-Hop, HDRip]
  • Мулан 2 / Mulan II (Даррел Руни, Линн Сауферлэнд, мультфильм, мюзикл, боеви ...
  • Атака пауков / Eight Legged Freaks (Эллори Элкайем, ужасы, фантастика, боев ...
  • Холостячки / Bachelorette (Лесли Хэдланд, комедия, 2012) [HDRip, Дубляж]
  • Последняя сказка Риты (Рената Литвинова, Фентези, драма, детектив, 2012) [D ...
  • Индиана Джонс: В поисках утраченного ковчега / Indiana Jones and the Raider ...
  • Поле битвы: Земля / Battlefield Earth: A Saga of the Year 3000 (Роджер Крис ...
  • Неделя в NBA с В.Гомельским / НТВ+ [28.06.2011, SD, XviD, RU, SAT]
  • Неприкасаемые / Intouchables (Оливье Накаш, Эрик Толедано, Драма, 2011) [BD ...
  • Чемпионат Европы 2012 / Группа B / 1-й тур / Германия - Португалия / Спорт ...
  • Супершторм в Сиэтле / Seattle Superstorm (Джейсон Бурк, фантастика, боевик ...
  • Товарищеский матч 2012 / АмаЗулу (ЮАР) - Манчестер Юнайтед (Англия) / MU TV ...
  • Олимпиада 2012 / Женщины, Мужчины / Плавание / Квалификация / НТВ+ [30.07.2 ...
  • Петля времени / Looper (Райан Джонсон, фантастика, боевик, триллер, 2012) [ ...
  • Информация
    Посетители, находящиеся в группе Гости, не могут оставлять комментарии к данной публикации.