вход на сайт

Имя пользователя :
Пароль :

Восстановление пароля Регистрация
Буря в Арктике / Arctic Blast (Брайан Тренчард-Смит, фантастика, триллер, 2010) [HDRip, Профессиональный (многоголосый закадровый)]
Рейтинг:
(голосов: 1)



[img]{THEME}/images/logopost.png[/img]



•Буря в Арктике / Arctic Blast •
♥ Год выпуска: 2010
♥ Страна: Австралия, Канада
♥ Производство: F G Film Productions
♥ Жанр: фантастика, триллер

♥ Режиссёр: Брайан Тренчард-Смит
♥ В ролях: Майкл Шэнкс, Алан Эндрюс, Джон Эндрюс, Джудит Берибей, Меган Бигнелл, Роган Браун, Синтия Бурк, Мат Бертон, Эндрю Кэйси, Сара Купер

♥ Перевод: Профессиональный (многоголосый закадровый)
♥ Субтитры: Отсутствуют

♥ Описание: В результате солнечного затмения на Земле начинается цепь катастрофических событий, которые угрожает планете началом нового Ледникового периода.


MediaInfo ▼
TextGeneral
Complete name : C:Burya.v.arktike.2010.P.HDRip.avi
Format : AVI
Format/Info : Audio Video Interleave
File size : 744 MiB
Duration : 1h 31mn
Overall bit rate : 1 134 Kbps
Writing application : MEncoder SVN-r30881(20100311-gcc4.3.3)
Writing library : MPlayer
Video #0
ID : 0
Format : MPEG-4 Visual
Format profile : Advanced [email protected]
Format settings, BVOP : 2
Format settings, QPel : No
Format settings, GMC : No warppoints
Format settings, Matrix : Default (H.263)
Codec ID : XVID
Codec ID/Hint : XviD
Duration : 1h 31mn
Bit rate : 994 Kbps
Width : 720 pixels
Height : 400 pixels
Display aspect ratio : 16:9
Frame rate : 25.000 fps
Color space : YUV
Chroma subsampling : 4:2:0
Bit depth : 8 bits
Scan type : Progressive
Compression mode : Lossy
Bits/(Pixel*Frame) : 0.138
Stream size : 652 MiB (88%)
Writing library : XviD 1.2.1 (UTC 2008-12-04)
Audio #1
ID : 1
Format : MPEG Audio
Format version : Version 1
Format profile : Layer 3
Mode : Joint stereo
Mode extension : MS Stereo
Codec ID : 55
Codec ID/Hint : MP3
Duration : 1h 31mn
Bit rate mode : Constant
Bit rate : 128 Kbps
Channel(s) : 2 channels
Sampling rate : 48.0 KHz
Compression mode : Lossy
Delay relative to video : 40ms
Stream size : 83.9 MiB (11%)
Alignment : Aligned on interleaves
Interleave, duration : 24 ms (0.60 video frame)
Interleave, preload duration : 504 ms
Writing library : LAME3.98
♥ Качество: HDRip
♥ Продолжительность: 01:31:39

♥ Формат: AVI
♥ Видео кодек: XviD
♥ Аудио кодек: MP3
♥ Видео: 720x400 (16:9), 25 fps, XviD ~994 kbps avg, 0.138 bit/pixel
♥ Аудио1: 48 kHz, MPEG Layer 3, 2 ch, ~128.00 kbps avg

♥ Дата премьеры (мир): 30 мая 2010


Релиз Группы "Virtus"

Стол заказов / Вступление в РГ / Благодарности, критика и другое


783d8e66985bd728afa3b3a503bf722d369d5e7bБуря в Арктике / Arctic Blast (Брайан Тренчард-Смит, фантастика, триллер, 2010) [HDRip, Профессиональный (многоголосый закадровый)] Буря в Арктике / Arctic Blast (Брайан Тренчард-Смит, фантастика, триллер, 2010) [HDRip, Профессиональный (многоголосый закадровый)] " />

Аплоадер: Админ, дата: 31-12-2012, 15:06, торрент скачан: 359 раз

Понравилась раздача? Посмотрите эти:
  • Погнали! / Getaway (Кортни Соломон, Боевик,Криминал, 2013) [HDRip, Професси ...
  • Ночь тамплиера / Night of the Templar (Пол Сэмпсон, Ужасы, фантастика, боев ...
  • Лучший стрелок / Top Gun (Тони Скотт, боевик, драма, мелодрама, 1986) [BDRi ...
  • Новые парни турбо / New Kids Turbo (Штефен Хаарс, Боевик, комедия, 2010) [H ...
  • Молодежный чемпионат мира 2012 (U-20). Четвертьфинал: Россия - Чехия [02.01 ...
  • Чемпионат Испании 2011-12 / 36-й тур / Реал Мадрид - Севилья / НТВ+ [Футбол ...
  • Чемпионат Европы 2012 / Группа C / 1-й тур / Ирландия — Хорватия / ТРК Футб ...
  • Чемпионат Европы 2012 / Группа D / 1-й тур / Украина - Швеция / Спорт 1 [11 ...
  • Олимпиада 2012 / Мужчины / Группа D / 1-й тур / Испания — Япония / НТВ+ [Фу ...
  • Олимпиада 2012 / Футбол / Мужчины / Группа A / 3-й тур / Великобритания - У ...
  • Tank Feat. T.I. & Kris Stephens / Compliments [2012, RnB,Hip-Hop, HDRip]
  • Битва в пустыне / The Objective (Дэниэл Мирик, ужасы, фантастика, триллер, ...
  • Арктический взрыв / Arctic Blast (Брайан Тренчард-Смит, фантастика, трилле ...
  • Арктический взрыв / Arctic Blast (Брайан Тренчард-Смит, фантастика, триллер ...
  • Холодная смесь / Cold Fusion (Иван Митов, боевик, 2010) [HDRip, Профессиона ...
  • Вскрытие инопланетянина/Alien Autopsy (Джонни Кэмпбелл, Комедия, фантастика ...
  • Повторяющие / Repeaters (режиссёр, фантастика, триллер, драма, 2010) [DVDRi ...
  • Чемпионат Англии 2011-12 / 35 тур / Манчестер Юнайтед - Эвертон / Спорт 1 [ ...
  • Замёрзший мир / 2012: Ice Age (Трэвис Форт, фантастика, боевик, 2011) [HDRi ...
  • Супершторм в Сиэтле / Seattle Superstorm (Джейсон Бурк, фантастика, боевик ...
  • Товарищеский матч 2012 / АмаЗулу (ЮАР) - Манчестер Юнайтед (Англия) / MU TV ...
  • Олимпиада 2012 / Женщины, Мужчины / Плавание / Квалификация / НТВ+ [30.07.2 ...
  • Искажение / Skew (Сейв Челенз, ужасы, триллер, 2011) [HDRip, Профессиональн ...
  • Татуировщик / The Tattooist (Питер Бюргер, ужасы, триллер, 2007) [HDRip, Пр ...
  • Ничего, кроме правды / Nothing But the Truth (Род Лури, триллер, драма, 200 ...
  • Информация
    Посетители, находящиеся в группе Гости, не могут оставлять комментарии к данной публикации.