вход на сайт

Имя пользователя :
Пароль :

Восстановление пароля Регистрация
Двенадцать бедствий на Рождество / The 12 Disasters of Christmas (Стивен Р. Монро, Фантастика, 2012) [HDTVRip, Профессиональный (многоголосый, закадровый)]
Рейтинг:
(голосов: 1)



[img]{THEME}/images/logopost.png[/img]




Двенадцать бедствий на Рождество / The 12 Disasters of Christmas
Год выпуска: 2012
Страна: США Канада
Производство: Association films
Жанр: Фантастика
Режиссёр: Стивен Р. Монро
В ролях: Эд Куинн, Магда Апанович, Холли Элисса другие

Перевод: Профессиональный (многоголосый, закадровый)
Озвучка: [Syfy]
Субтитры: Отсутствуют

Описание: В Канун Рождества в небе появляется зловещая темная звезда, словно знак приближающегося Судного Дня. Радостные праздники грозят обернуться самым страшным временем в истории человечества, когда воплотится в жизнь древнее пророчество майя. Неужели грядут ужасные двенадцать бедствий на Рождество и сильные землетрясения, и прочие стихийные бедствия уничтожат мир?


"MediaInfo" ▼Общее
Полное имя : D:The.12.Disasters.of.Christmas.2012.HDTVRip.rus.avi
Формат : AVI
Формат/Информация : Audio Video Interleave
Размер файла : 1,37 Гбайт
Продолжительность : 1 ч. 25 м.
Общий поток : 2279 Кбит/сек
Программа кодирования : VirtualDubMod 1.5.10.2 (build 2540/release)
Библиотека кодирования : VirtualDubMod build 2540/release

Видео
Идентификатор : 0
Формат : MPEG-4 Visual
Профиль формата : Advanced [email protected]
Параметр BVOP формата : 2
Параметр QPel формата : Нет
Параметр GMC формата : Без точки перехода
Параметр матрицы формата : Default (MPEG)
Идентификатор кодека : XVID
Идентификатор кодека/Подсказка : XviD
Продолжительность : 1 ч. 25 м.
Битрейт : 2075 Кбит/сек
Ширина : 720 пикселей
Высота : 400 пикселей
Соотношение сторон : 16:9
Частота кадров : 29,970 кадров/сек
Цветовое пространство : YUV
Субдискретизация насыщенности : 4:2:0
Битовая глубина : 8 бит
Тип развёртки : Прогрессивная
Метод сжатия : С потерями
Бит/(Пиксели*Кадры) : 0.240
Размер потока : 1,25 Гбайт (91%)
Библиотека кодирования : XviD 1.2.1 (UTC 2008-12-04)

Аудио
Идентификатор : 1
Формат : AC-3
Формат/Информация : Audio Coding 3
Расширение режима : CM (complete main)
Параметр Endianness формата : Big
Идентификатор кодека : 2000
Продолжительность : 1 ч. 25 м.
Вид битрейта : Постоянный
Битрейт : 192 Кбит/сек
Каналы : 2 канала
Расположение каналов : Front: L R
Частота : 48,0 КГц
Битовая глубина : 16 бит
Метод сжатия : С потерями
Размер потока : 118 Мбайт (8%)
Выравнивание : Соединение по промежуткам
Продолжительность промежутка : 33 мс. (1,00 видеокадр)
Время предзагрузки промежутка : 512 мс.

Качество: HDTVRip
Продолжительность: 01:25:55 час.

Формат: AVI
Видео кодек: XviD
Аудио кодек: AAC
Видео: 720x400 (1.80:1), 29.970 fps, XviD build 50 2075 kbps avg, 0.24 bit/pixel
Аудио: 48 kHz, AC3 Dolby Digital, 2/0 (L,R) ch, 192 kbps


53408b110ff284484f3e69dc85e9b9a21b082218Двенадцать бедствий на Рождество / The 12 Disasters of Christmas (Стивен Р. Монро, Фантастика, 2012) [HDTVRip, Профессиональный (многоголосый, закадровый)] Двенадцать бедствий на Рождество / The 12 Disasters of Christmas (Стивен Р. Монро, Фантастика, 2012) [HDTVRip, Профессиональный (многоголосый, закадровый)] " />

Аплоадер: Админ, дата: 1-01-2013, 04:21, торрент скачан: 359 раз

Понравилась раздача? Посмотрите эти:
  • Бойфренд из будущего / About Time (Ричард Кёртис, Фантастика, драма, комеди ...
  • Одноклассники 2 / Grown Ups 2 (Деннис Дуган, Комедия, 2013) [BDRip, Професс ...
  • Миллионы Брюстера / Brewsters Millions (Уолтер Хилл, Комедия, 1985) [HDTVRi ...
  • Миллион для чайников / The Brass Teapot (Рамаа Мосли, Фэнтези, триллер, ком ...
  • Глушь / Resurrection County (Матт Зеттел, Ужасы,триллер, 2008) [DVDRip, Про ...
  • Жил-был тигр / Ek Tha Tiger (Кабир Кхан, боевик, триллер , 2012) [ HDRip, ...
  • Легенда о МорДу / The Legend of MorDu (Брайан Ларсен, Короткометражный, ска ...
  • Путешествие на дно моря / Voyage to the Bottom of the Sea (Ирвин Аллен / I ...
  • Кажется, я люблю свою жену / I Think I Love My Wife (Крис Рок, Драма, мелод ...
  • Бог любви / God of Love (Люк Мэзени, Короткометражка, фэнтези, комедия, мел ...
  • Любовь по расписанию / Поезд (Сергей Мезенцев, мелодрама, 2012) [HDTVRip, Н ...
  • К-9: Рождественские приключения / K9 Adventures: A Christmas Tale (Бен Гурл ...
  • К-9: Рождественские приключения / K9 Adventures: A Christmas Tale (Бен Гурл ...
  • Заместитель / Il supplente (Андреа Жублин, Короткометражка, комедия, 2007) ...
  • Двенадцать бедствий на Рождество / The 12 Disasters of Christmas (Стивен Р. ...
  • Покорить высоту / Take It to the Limit (Сэм Кит / Sam Kieth, семейный, 2000 ...
  • Светлячок. Воссоединение Коричневых плащей к 10 годовщине / Firefly 10th An ...
  • Боец из трущоб / Gutter King (Кейт Алан Моррис / Keith Alan Morris, боевик, ...
  • Глаз шторма / The Eye of the Storm (Фред Скеписи, Драма, 2011) [HDRip, Проф ...
  • Человек из банки (Иван Кульнев, Комедия, 2012) [DVDRip, Не требуется]
  • Информация
    Посетители, находящиеся в группе Гости, не могут оставлять комментарии к данной публикации.