вход на сайт

Имя пользователя :
Пароль :

Восстановление пароля Регистрация
Универсальный солдат 4 / Universal Soldier: Day of Reckoning (Джон Хайамс, Фантастика, боевик, триллер, 2012) [BDRip-AVC, Дубляж, Оригинал (английский), Sub]
Рейтинг:
(голосов: 1)



[img]{THEME}/images/logopost.png[/img]



Универсальный солдат 4 / Universal Soldier: Day of Reckoning
«Under their own command»


Год выпуска: 2012
Страна: США
Производство: Baumgarten Management
Жанр: Фантастика, боевик, триллер

Режиссёр: Джон Хайамс
В ролях:Жан-Клод Ван Дамм, Скотт Эдкинс, Андрей Арловский, Дольф Лундгрен, Кристофер Ван Варенберг, Джеймс Роулингс, Дэвид Дженсен, Мария Боннер, Рас Блэквелл, Остин Нолти

Перевод: Дубляж, Оригинал (английский)
Субтитры: английские

Описание: Настоящее время. Программа «Unisol» по-прежнему актуальна и снова введена в эксплуатацию. Давним и непримиримым врагам времён Вьетнамской войны Эндрю Скотту и Люку Деверо суждено встретиться в очередной раз, дабы продолжить своё извечное противостояние и нескончаемую борьбу. Однако, новые опасности и трудности заставляют двух солдат на время объединиться пред лицом общей неприятности, что весьма ненадолго. Ясно одно: кровавый исход и брутальный финал неизбежен…



Качество: BDRip-AVC | Сэмпл
Продолжительность:01:53:58 час.


Формат: MKV
Видео кодек: x264
Аудио кодек: AC3
Видео: 1032x440 (2.35:1), 23.976 fps, x264 ~1 858 kbps avg, 0.171 bit/pixel
Аудио#1: 48 kHz, AC3 Dolby Digital, 3/2 (L,C,R,l,r) + LFE ch, ~448 kbps - (Дубляж)
Аудио#2: 48 kHz, AC3 Dolby Digital, 3/2 (L,C,R,l,r) + LFE ch, ~448 kbps - (Оригинал)

Дата премьеры (мир): 23 августа 2012
Дата премьеры (РФ): 4 октября 2012, «Люксор»

MediaInfo| ▼

General
Unique ID : 216117867695891826582220047390222769520 (0xA296C98BEB95FE2C9AA5C6A05092DD70)
Complete name : Universalnyj.Soldat.4.2012.D.BDRip.x264.potroks.mkv
Format : Matroska
Format version : Version 2
File size : 2.19 GiB
Duration : 1h 53mn
Overall bit rate : 2 754 Kbps
Movie name : -=POTROKS=-
Encoded date : UTC 2012-12-22 10:01:16
Writing application : mkvmerge v5.7.0 (The Whirlwind) built on Jul 8 2012 20:08:51
Writing library : libebml v1.2.3 + libmatroska v1.3.0

Video
ID : 1
Format : AVC
Format/Info : Advanced Video Codec
Format profile : [email protected]
Format settings, CABAC : Yes
Format settings, ReFrames : 10 frames
Codec ID : V_MPEG4/ISO/AVC
Duration : 1h 53mn
Bit rate : 1 858 Kbps
Width : 1 032 pixels
Height : 440 pixels
Display aspect ratio : 2.35:1
Frame rate mode : Constant
Frame rate : 23.976 fps
Color space : YUV
Chroma subsampling : 4:2:0
Bit depth : 8 bits
Scan type : Progressive
Bits/(Pixel*Frame) : 0.171
Stream size : 1.43 GiB (65%)
Title : Универсальный солдат 4
Writing library : x264 core 125 r2208 d9d2288
Encoding settings : cabac=1 / ref=10 / deblock=1:-2:-1 / analyse=0x3:0x133 / me=umh / subme=11 / psy=1 / psy_rd=1.07:0.00 / mixed_ref=1 / me_range=32 / chroma_me=1 / trellis=2 / 8x8dct=1 / cqm=0 / deadzone=21,11 / fast_pskip=0 / chroma_qp_offset=-2 / threads=6 / lookahead_threads=1 / sliced_threads=0 / nr=0 / decimate=1 / interlaced=0 / bluray_compat=0 / constrained_intra=0 / bframes=11 / b_pyramid=2 / b_adapt=2 / b_bias=0 / direct=3 / weightb=1 / open_gop=0 / weightp=2 / keyint=240 / keyint_min=23 / scenecut=40 / intra_refresh=0 / rc_lookahead=150 / rc=2pass / mbtree=1 / bitrate=1858 / ratetol=1.0 / qcomp=0.67 / qpmin=0 / qpmax=65 / qpstep=4 / cplxblur=20.0 / qblur=0.5 / vbv_maxrate=20000 / vbv_bufsize=25000 / nal_hrd=none / ip_ratio=1.35 / aq=1:0.80
Language : English
Default : Yes
Forced : No

Audio #1
ID : 2
Format : AC-3
Format/Info : Audio Coding 3
Mode extension : CM (complete main)
Format settings, Endianness : Big
Codec ID : A_AC3
Duration : 1h 53mn
Bit rate mode : Constant
Bit rate : 448 Kbps
Channel(s) : 6 channels
Channel positions : Front: L C R, Side: L R, LFE
Sampling rate : 48.0 KHz
Bit depth : 16 bits
Compression mode : Lossy
Stream size : 364 MiB (16%)
Title : Dub | DD 5.1 @ 448 kbps
Language : Russian
Default : Yes
Forced : Yes

Audio #2
ID : 3
Format : AC-3
Format/Info : Audio Coding 3
Mode extension : CM (complete main)
Format settings, End
c9d49bd5d98763d9be4be97a630a24e5a78c02f0Универсальный солдат 4 / Universal Soldier: Day of Reckoning (Джон Хайамс, Фантастика, боевик, триллер, 2012) [BDRip-AVC, Дубляж, Оригинал (английский), Sub] Универсальный солдат 4 / Universal Soldier: Day of Reckoning (Джон Хайамс, Фантастика, боевик, триллер, 2012) [BDRip-AVC, Дубляж, Оригинал (английский), Sub] " />

Аплоадер: Админ, дата: 22-12-2012, 18:01, торрент скачан: 359 раз

Понравилась раздача? Посмотрите эти:
  • Универсальный солдат / Universal Soldier (Роланд Эммерих, фантастика, 1992) ...
  • Хроника / Chronicle (Джошуа Транк, фантастика, боевик, триллер, драма, 2012 ...
  • Синистер / Sinister (Скотт Дерриксон, ужасы, детектив, 2012) [BDRip-AVC, Ду ...
  • 007: Координаты «Скайфолл» / Skyfall (Сэм Мендес, Боевик, триллер, криминал ...
  • Универсальный солдат 4 / Universal Soldier: Day of Reckoning (Джон Хайамс, ...
  • Патруль / End of Watch (Дэвид Эйр, Триллер, драма, криминал, 2012) [BDRip-A ...
  • Универсальный солдат 4 / Universal Soldier: Day of Reckoning (Джон Хайамс, ...
  • Коллекционер 2 / The Collection (Маркус Данстэн, ужасы, боевик, триллер , 2 ...
  • [3D] Универсальный солдат 4 3D трейлер / Universal Soldier: Day of Reckonin ...
  • [3D] Универсальный солдат 4 / Universal Soldier: Day of Reckoning (Джон Хай ...
  • Ворон / The Raven (Джеймс МакТиг, Триллер, детектив, 2012) [BDRip 720p, Дуб ...
  • Пираньи 3DD / Piranha 3DD (Джон Гулажер, ужасы, триллер, комедия, 2012) [BD ...
  • Люди в черном 3 / Men in Black III (Барри Зонненфельд, Фантастика, боевик, ...
  • Москва 2017 / Branded (Джейми Брэдшоу, Александр Дулерайн, фантастика, трил ...
  • Цунами 3D / Bait (Кимбл Рендалл, Ужасы, боевик, триллер, 2011) [BDRip 720p ...
  • Патруль / End of Watch (Дэвид Эйр, Триллер, драма, криминал, 2012) [BDRip 7 ...
  • Явление / The Apparition (Тодд Линкольн, Ужасы, триллер, 2012) [BDRip 720p, ...
  • Универсальный солдат 4 / Universal Soldier: Day of Reckoning (Джон Хайамс, ...
  • [iPhone, iPod] Универсальный солдат 4 / Universal Soldier: Day of Reckoning ...
  • Универсальный солдат 4 / Universal Soldier: Day of Reckoning (Джон Хайамс, ...
  • Универсальный солдат 4 / Universal Soldier: Day of Reckoning (Джон Хайамс, ...
  • Универсальный солдат 4 / Universal Soldier: Day of Reckoning (Джон Хайамс, ...
  • Универсальный солдат 4 / Universal Soldier: Day of Reckoning (Джон Хайамс, ...
  • Универсальный солдат 4 / Universal Soldier: Day of Reckoning (Джон Хайамс, ...
  • Универсальный солдат 4 / Universal Soldier: Day of Reckoning (Джон Хайамс, ...
  • Информация
    Посетители, находящиеся в группе Гости, не могут оставлять комментарии к данной публикации.