вход на сайт

Имя пользователя :
Пароль :

Восстановление пароля Регистрация
Прометей / Prometheus (Ридли Скотт, Фантастика, триллер, приключения, 2012) [BDRip-AVC, Дубляж, Украинский дубляж, Sub]
Рейтинг:
(голосов: 1)



[img]{THEME}/images/logopost.png[/img]



Прометей / Prometheus
«Они искали колыбель человечества, но нашли его погибель»


Год выпуска: 2012
Страна: США
Производство: Brandywine Productions Ltd., Dune Entertainment, Scott Free Productions
Жанр: Фантастика, триллер, приключения

Режиссёр: Ридли Скотт
В ролях: Нуми Рапас, Майкл Фассбендер, Шарлиз Терон, Идрис Эльба, Гай Пирс, Логан Маршалл-Грин, Шон Харрис, Рейф Сполл, Иман Эллиотт, Бенедикт Вонг, Кейт Дики, Патрик Уилсон, Люси Хатчинсон

Перевод: Дубляж, Украинский дубляж
Субтитры: Русские, украинские, английские (вшитые отключаемые)

Описание: В поисках сакрального знания группа ученых отправляется в самые темные и неизведанные чертоги вселенной. Именно там, в отдаленных мирах, находясь на пределе своих умственных и физических возможностей, им предстоит вступить в безжалостную схватку за будущее всего человечества…



Качество: BDRip-AVC | Сэмпл
Продолжительность: 02:03:46 час.

Формат: MKV
Видео кодек: x264
Аудио кодек: AC3
Видео: 1024x428 (2.40:1), 23.976 fps, x264 ~1291 kbps avg, 0.123 bit/pixel
Аудио #1: 48 kHz, AC3 Dolby Digital, 2/0 (L,R) ch, ~192 kbps [Дубляж]
Аудио #2: 48 kHz, AC3 Dolby Digital, 2/0 (L,R) ch, ~192 kbps [Украинский дубляж]

Дата премьеры (мир): 30 мая 2012
Дата премьеры (РФ): 31 мая 2012, «Двадцатый Век Фокс СНГ»

"MediaInfo" ▼Общее
Уникальный идентификатор : 200184086599733112035049878433220511306 (0x969A0D7C4127931987F8A89753BBC64A)
Полное имя : D:Prometheus.2012.BDRip-AVC.mkv
Формат : Matroska
Версия формата : Version 2
Размер файла : 1,45 Гбайт
Продолжительность : 2 ч. 3 м.
Общий поток : 1676 Кбит/сек
Название фильма : Прометей / Prometheus (2012) BDRip-AVC rip by Rulya74
Дата кодирования : UTC 2012-09-29 05:47:25
Программа кодирования : mkvmerge v5.7.0 (The Whirlwind) built on Jul 8 2012 20:08:51
Библиотека кодирования : libebml v1.2.3 + libmatroska v1.3.0

Видео
Идентификатор : 1
Формат : AVC
Формат/Информация : Advanced Video Codec
Профиль формата : [email protected]
Параметр CABAC формата : Да
Параметр ReFrames формата : 10 кадров
Идентификатор кодека : V_MPEG4/ISO/AVC
Продолжительность : 2 ч. 3 м.
Битрейт : 1291 Кбит/сек
Ширина : 1024 пикселя
Высота : 428 пикселей
Соотношение сторон : 2,40:1
Частота кадров : 23,976 кадра/сек
Цветовое пространство : YUV
Субдискретизация насыщенности : 4:2:0
Битовая глубина : 8 бит
Тип развёртки : Прогрессивная
Бит/(Пиксели*Кадры) : 0.123
Размер потока : 1,09 Гбайт (75%)
Библиотека кодирования : x264 core 128 r2216 198a7ea
Настройки программы : cabac=1 / ref=10 / deblock=1:-2:-1 / analyse=0x3:0x113 / me=umh / subme=10 / psy=1 / psy_rd=1.00:0.09 / mixed_ref=1 / me_range=48 / chroma_me=1 / trellis=2 / 8x8dct=1 / cqm=0 / deadzone=21,11 / fast_pskip=0 / chroma_qp_offset=-3 / threads=16 / lookahead_threads=2 / sliced_threads=0 / nr=0 / decimate=1 / interlaced=0 / bluray_compat=0 / constrained_intra=0 / bframes=11 / b_pyramid=2 / b_adapt=2 / b_bias=0 / direct=3 / weightb=1 / open_gop=0 / weightp=2 / keyint=240 / keyint_min=22 / scenecut=40 / intra_refresh=0 / rc=2pass / mbtree=0 / bitrate=1291 / ratetol=1.0 / qcomp=0.60 / qpmin=10 / qpmax=51 / qpstep=4 / cplxblur=20.0 / qblur=0.5 / ip_ratio=1.40 / pb_ratio=1.30 / aq=2:1.00
Default : Да
Forced : Нет

Аудио #1
Идентификатор : 2
Формат : AC-3
Формат/Информация : Audio Coding 3
Расширение режима : CM (complete main)
Идентификатор кодека : A_AC3
Продолжительность : 2 ч. 3 м.
Вид битрейта : Постоянный
Битрейт : 192 Кбит/сек
Каналы : 2 канала
Расположение каналов : Front: L R
Частота : 48,0 КГц
Битовая глубина : 16 бит
Метод сжатия : С потерями
Размер потока : 170 Мбайт (11%)
Заголовок : Дубляж
Язык : Russian
Default : Да
Forced : Нет

Аудио #2
Идентификатор : 3
Формат : AC-3
Формат/Информация : Audio Coding 3
Расширение режима : CM (complete main)
Идентификатор кодека : A_AC3
Продолжительность : 2 ч. 3 м.
Вид битрейта : Постоянный
Битрейт : 192 Кбит/сек
Каналы : 2 канала
Расположение к
5beeb79bb681bd3625a5fcfee0a4cceec450c680Прометей / Prometheus (Ридли Скотт, Фантастика, триллер, приключения, 2012) [BDRip-AVC, Дубляж, Украинский дубляж, Sub] Прометей / Prometheus (Ридли Скотт, Фантастика, триллер, приключения, 2012) [BDRip-AVC, Дубляж, Украинский дубляж, Sub] " />

Аплоадер: Админ, дата: 29-09-2012, 14:30, торрент скачан: 359 раз

Понравилась раздача? Посмотрите эти:
  • Прометей / Prometheus (Ридли Скотт, фантастика, детектив, приключения, 2012 ...
  • Морской бой / Battleship (Питер Берг, Фантастика, боевик, триллер, приключе ...
  • Прометей / Prometheus (Ридли Скотт, ужасы, фантастика, боевик, 2012) [WEB-D ...
  • Прометей / Prometheus (Ридли Скотт, Фантастика, триллер, приключения, 2012) ...
  • Прометей / Prometheus (Ридли Скотт, фантастика, триллер, приключения, 2012) ...
  • Прометей / Prometheus (Ридли Скотт, фантастика, триллер, приключения, 2012) ...
  • Прометей / Prometheus (Ридли Скотт, фантастика, триллер, приключения, 2012) ...
  • Прометей / Prometheus (Ридли Скотт, фантастика, детектив, приключения, 2012 ...
  • Прометей / Prometheus (Ридли Скотт, фантастика, триллер, приключения, 2012) ...
  • Прометей / Prometheus (Ридли Скотт, фантастика, триллер, приключения, 2012) ...
  • [iPhone, iPod] Прометей / Prometheus (Ридли Скотт, Фантастика, Триллер, При ...
  • Прометей / Prometheus (Ридли Скотт, фантастика, триллер, приключения, 2012) ...
  • Прометей / Prometheus (Ридли Скотт, фантастика, триллер, приключения, 2012) ...
  • Прометей / Prometheus (Ридли Скотт, фантастика, триллер, приключения, 2012) ...
  • Прометей / Prometheus (Ридли Скотт, Фантастика, триллер, приключения, 2012) ...
  • Прометей / Prometheus (Ридли Скотт, Фантастика, триллер, приключения, 2012) ...
  • Прометей / Prometheus (Ридли Скотт, Фантастика, триллер, приключения, 2012) ...
  • Прометей / Prometheus (Ридли Скотт, фантастика, триллер, приключения, 2012) ...
  • Прометей / Prometheus (Ридли Скотт, Фантастика, триллер, приключения, 2012) ...
  • Прометей / Prometheus (Ридли Скотт, Фантастика, Триллер, Приключения, 2012) ...
  • Информация
    Посетители, находящиеся в группе Гости, не могут оставлять комментарии к данной публикации.