вход на сайт

Имя пользователя :
Пароль :

Восстановление пароля Регистрация
Образец 47 / Marvel One-Shot: Item 47 (Луис Д’Эспозито, короткометражка, фантастика, боевик, 2012) [BDRip-AVC, Профессиональный (многоголосый, закадровый), Оригинал, Sub [Rus]]
Рейтинг:
(голосов: 1)



[img]{THEME}/images/logopost.png[/img]





¤ Год выпуска: 2012
¤ Страна:США
¤ Производство: Marvel Studios Inc.
¤ Жанр: короткометражка, фантастика, боевик

¤ Режиссёр: Луис Д’Эспозито / Louis DEsposito
¤ В ролях: Джесси Бретфорд, Лиззи Каплан, Максимилиано Эрнандес, Титус Уилливер

¤ Перевод: Профессиональный (многоголосый, закадровый), Оригинал
¤ Озвучка: Студия "Несмертельное оружие"
¤ Субтитры: Sub [Rus] (вшитые, отключаемые)

« Описание »
Короткометражный фильм расскажет об обратной стороне событий показанных в ленте Джосса Уидона «Мстители».

Пара нашла оружие Читаури, которое не заметили соответствующие службы после боя Мстителей с вторженцами. Они решают применить его, с чем вынуждены теперь бороться два агента Щ. И. Т. а.



« Тех.Данные »
¤ Качество: BDRip-AVC
¤ Продолжительность: ~ 00:11:20 часа

¤ Формат: Matroska-MKV-
¤ Видео кодек: AVC [email protected]
¤ Аудио кодек: Audio Coding 3
¤ Видео: 1280x528 (2.40:1), 23.976 fps, AVC ~2765 kbps avg, 0.171 bit/pixel
¤ Аудио: 48 kHz, AC3 Dolby Digital, 2/0 (L,R) ch, ~192 kbpsRus
¤ Аудио: 48 kHz, AC3 Dolby Digital, 2/0 (L,R) ch, ~192 kbpsEng

MediaInfo ▼TextОбщее
Уникальный идентификатор : 206350595204952931784064155864885746993 (0x9B3DADD5386AD24881B01C6AEAE5DD31)
Полное имя : D:РаспоковкаОбразец 47.2012.BDRip-AVC.mkv
Формат : Matroska
Версия формата : Version 2
Размер файла : 256 Мбайт
Продолжительность : 11 м.
Общий поток : 3149 Кбит/сек
Дата кодирования : UTC 2012-08-23 22:50:28
Программа кодирования : mkvmerge v5.2.1 (A Far Off Place) built on Jan 2 2012 23:21:10
Библиотека кодирования : libebml v1.2.3 + libmatroska v1.3.0

Видео
Идентификатор : 1
Формат : AVC
Формат/Информация : Advanced Video Codec
Профиль формата : [email protected]
Параметр CABAC формата : Да
Параметр ReFrames формата : 4 кадра
Идентификатор кодека : V_MPEG4/ISO/AVC
Продолжительность : 11 м.
Битрейт : 2765 Кбит/сек
Ширина : 1280 пикселей
Высота : 528 пикселей
Соотношение сторон : 2,40:1
Частота кадров : 23,976 кадра/сек
Цветовое пространство : YUV
Субдискретизация насыщенности : 4:2:0
Битовая глубина : 8 бит
Тип развёртки : Прогрессивная
Бит/(Пиксели*Кадры) : 0.171
Размер потока : 219 Мбайт (86%)
Библиотека кодирования : x264 core 120 r2164 da19765
Настройки программы : cabac=1 / ref=4 / deblock=1:-1:-1 / analyse=0x3:0x113 / me=umh / subme=9 / psy=1 / psy_rd=1.00:0.00 / mixed_ref=1 / me_range=16 / chroma_me=1 / trellis=2 / 8x8dct=1 / cqm=0 / deadzone=21,11 / fast_pskip=1 / chroma_qp_offset=-2 / threads=3 / sliced_threads=0 / nr=0 / decimate=1 / interlaced=0 / bluray_compat=0 / constrained_intra=0 / bframes=3 / b_pyramid=0 / b_adapt=2 / b_bias=0 / direct=3 / weightb=1 / open_gop=0 / weightp=2 / keyint=240 / keyint_min=23 / scenecut=40 / intra_refresh=0 / rc_lookahead=40 / rc=2pass / mbtree=1 / bitrate=2765 / ratetol=1.0 / qcomp=0.60 / qpmin=10 / qpmax=51 / qpstep=4 / cplxblur=20.0 / qblur=0.5 / vbv_maxrate=50000 / vbv_bufsize=50000 / nal_hrd=none / ip_ratio=1.40 / aq=1:1.00
Язык : English
Default : Да
Forced : Нет

Аудио #1
Идентификатор : 2
Формат : AC-3
Формат/Информация : Audio Coding 3
Расширение режима : CM (complete main)
Идентификатор кодека : A_AC3
Продолжительность : 11 м.
Вид битрейта : Постоянный
Битрейт : 192 Кбит/сек
Каналы : 2 канала
Расположение каналов : Front: L R
Частота : 48,0 КГц
Битовая глубина : 16 бит
Метод сжатия : С потерями
Размер потока : 15,6 Мбайт (6%)
Заголовок : MVO (Несмертельное оружие)
Язык : Russian
Default : Да
Forced : Нет

Аудио #2
Идентификатор : 3
Формат : AC-3
Формат/Информация : Audio Coding 3
Расширение режима : CM (complete main)
Идентификатор кодека : A_AC3
Продолжительность : 11 м.
Вид битрейта : Постоянный
Битрейт : 192 Кбит/сек
Каналы : 2 канала
Расположение каналов : Front: L R
Частота : 48,0 КГц
Битовая глубина : 16 бит
Метод сжатия : С потерями
Размер потока : 15,6
13e7ec0f527d3b1b48fef97e01cad1d9a783f596Образец 47 / Marvel One-Shot: Item 47 (Луис Д’Эспозито, короткометражка, фантастика, боевик, 2012) [BDRip-AVC, Профессиональный (многоголосый, закадровый), Оригинал, Sub [Rus]] Образец 47 / Marvel One-Shot: Item 47 (Луис Д’Эспозито, короткометражка, фантастика, боевик, 2012) [BDRip-AVC, Профессиональный (многоголосый, закадровый), Оригинал, Sub [Rus]] " />

Аплоадер: Админ, дата: 24-08-2012, 17:19, торрент скачан: 359 раз

Понравилась раздача? Посмотрите эти:
  • Подглядывающий на кухне / Kick the Cock (Тинто Брасс, Эротика, короткометра ...
  • Погнали! / Getaway (Кортни Соломон, боевик, криминал, 2013) [BDRip 1080p, П ...
  • Погнали! / Getaway (Кортни Соломон, боевик, криминал, 2013) [BDRip-AVC, Про ...
  • Филадельфия / Philadelphia (Джонатан Демме, Драма, 1993) [BDRip-AVC, Профес ...
  • Башня / The Tower (Чи-хун Ким, драма, 2012) [BDRip-AVC, Любительский (двухг ...
  • Летучий отряд Скотланд-Ярда / The Sweeney (Ник Лав, Боевик, драма, криминал ...
  • Залив / The Bay (Барри Левинсон, Ужасы, фантастика, триллер, 2012) [BDRip-A ...
  • Рикошет / Ricochet (Ник Гомез, драма, детектив, 2011) [BDRip-AVC, Профессио ...
  • Огонь Кристиана Лубутена 3D / FEU: Crazy Horse Paris (Бруно Халлин, Докумен ...
  • Толстяк на ринге / Here Comes the Boom (Фрэнк Корачи, Боевик, комедия, 2012 ...
  • Суррогат / The Sessions (Бен Луин, Драма, 2012) [BDRip-AVC, Профессиональны ...
  • Чемпионат Англии 2012-2013 / 25-й тур / Обзор / Суббота / BBC Sport [2013 г ...
  • Ошибка телохранителя / The Girl from the Naked Eye (Дэвид Рен, боевик, трил ...
  • Думай, как мужчина / Think Like a Man (Тим Стори, Мелодрама, комедия, 2012) ...
  • Изо всех сил / Over the Top (Менахем Голан, Боевик, 1987) [BDRip-AVC, Профе ...
  • Убойное Рождество Гарольда и Кумара / A Very Harold & Kumar Christmas (Тодд ...
  • Эд Вуд / Ed Wood (Тим Бёртон, драма, комедия, биография, 1994) [BDRip-AVC, ...
  • Сид, инструкция по выживанию / Surviving Sid (Гален Т. Чу / Galen T. Chu, К ...
  • Безумные мелодии: Кажется я видел котика / Looney Tunes: I Tawt I Taw а Pud ...
  • Скрат: Потерянный орех / Scrat: Gone Nutty (Карлос Салдана, короткометражка ...
  • Заражение / Contagion (Стивен Содерберг, Фантастика, 2011) [BDRip 1080p, Пр ...
  • Лоракс: Серенада / The Lorax: Serenade (Кайл Балда, мультфильм, комедия, му ...
  • Павшая империя / Hirokin (Алехо Мо-Сан, фантастика, боевик, драма, приключе ...
  • Большой отрыв БОБа / B.O.B.s Big Break (Роберт Портер, короткометражка, ан ...
  • Петля времени / Looper (Райан Джонсон, Фантастика, боевик, триллер, кримина ...
  • Информация
    Посетители, находящиеся в группе Гости, не могут оставлять комментарии к данной публикации.