вход на сайт

Имя пользователя :
Пароль :

Восстановление пароля Регистрация
Голодные игры / The Hunger Games (Гэри Росс, Фантастика, боевик, приключения, 2012) [BDRip-AVC, Дубляж, Sub]
Рейтинг:
(голосов: 1)



[img]{THEME}/images/logopost.png[/img]



Голодные игры / The Hunger Games

Год выпуска: 2012
Страна: США
Производство: Larger Than Life Productions, Lionsgate, Color Force
Жанр: Фантастика, боевик, приключения

Режиссёр: Гэри Росс
В ролях: Дженнифер Лоуренс, Лиам Хемсворт, Джош Хатчерсон, Элизабет Бэнкс, Вуди Харрельсон, Стенли Туччи, Ленни Кравиц, Уэс Бентли, Дональд Сазерленд, Уиллоу Шилдс

Перевод: Дубляж
Субтитры: Русский, английский (полные, SDH)

Описание: Будущее. Деспотичное государство ежегодно устраивает показательные игры на выживание, за которыми в прямом эфире следит весь мир. Жребий участвовать в Играх выпадает юной Китнисс и тайно влюбленному в нее Питу. Они знакомы с детства, но теперь должны стать врагами. Ведь по нерушимому закону Голодных игр победить может только один из 24 участников. Судьям не важно кто выиграет, главное — зрелище. И на этот раз зрелище будет незабываемым.

Качество: BDRip-AVC
Продолжительность: 02:22:23 час.


Формат: MKV
Видео кодек: x264
Аудио кодек: AC3
Видео: 1024x426 (2.40:1), 23.976 fps, x264 ~1 728 kbps avg, 0.165 bit/pixel
Аудио: 48 kHz, AC3 Dolby Digital, 3/2 (L,C,R,l,r) + LFE ch, ~448 kbps- (Дубляж)


Дата премьеры (мир): 12 марта 2012
Дата премьеры (РФ): 22 марта 2012, «Вольга»

MediaInfo ▼Полное имя : D:Голодные.игры-The.Hunger.Games.(2012).BDRip-AVC.mkv
Формат : Matroska
Версия формата : Version 2
Размер файла : 2,17 Гбайт
Продолжительность : 2 ч. 22 м.
Общий поток : 2177 Кбит/сек
Дата кодирования : UTC 2012-08-19 00:12:44
Программа кодирования : mkvmerge v5.6.0 (Kenya Kane) built on May 27 2012 16:44:04
Библиотека кодирования : libebml v1.2.3 + libmatroska v1.3.0

Видео
Идентификатор : 1
Формат : AVC
Формат/Информация : Advanced Video Codec
Профиль формата : [email protected]
Параметр CABAC формата : Да
Параметр ReFrames формата : 9 кадров
Идентификатор кодека : V_MPEG4/ISO/AVC
Продолжительность : 2 ч. 22 м.
Битрейт : 1728 Кбит/сек
Ширина : 1024 пикселя
Высота : 426 пикселей
Соотношение сторон : 2,40:1
Частота кадров : 23,976 кадра/сек
Цветовое пространство : YUV
Субдискретизация насыщенности : 4:2:0
Битовая глубина : 8 бит
Тип развёртки : Прогрессивная
Бит/(Пиксели*Кадры) : 0.165
Размер потока : 1,68 Гбайт (77%)
Библиотека кодирования : x264 core 125 r2200 999b753
Настройки программы : cabac=1 / ref=9 / deblock=1:-3:-2 / analyse=0x3:0x133 / me=umh / subme=9 / psy=1 / psy_rd=1.05:0.10 / mixed_ref=1 / me_range=24 / chroma_me=1 / trellis=2 / 8x8dct=1 / cqm=0 / deadzone=21,11 / fast_pskip=0 / chroma_qp_offset=-3 / threads=12 / lookahead_threads=2 / sliced_threads=0 / nr=0 / decimate=1 / interlaced=0 / bluray_compat=0 / constrained_intra=0 / bframes=6 / b_pyramid=2 / b_adapt=2 / b_bias=0 / direct=3 / weightb=1 / open_gop=0 / weightp=2 / keyint=240 / keyint_min=23 / scenecut=40 / intra_refresh=0 / rc=2pass / mbtree=0 / bitrate=1728 / ratetol=1.0 / qcomp=0.60 / qpmin=0 / qpmax=69 / qpstep=4 / cplxblur=20.0 / qblur=0.5 / ip_ratio=1.40 / pb_ratio=1.30 / aq=2:0.80
Язык : English
Default : Да
Forced : Нет

Аудио
Идентификатор : 2
Формат : AC-3
Формат/Информация : Audio Coding 3
Расширение режима : CM (complete main)
Параметр Endianness формата : Big
Идентификатор кодека : A_AC3
Продолжительность : 2 ч. 22 м.
Вид битрейта : Постоянный
Битрейт : 448 Кбит/сек
Каналы : 6 каналов
Расположение каналов : Front: L C R, Side: L R, LFE
Частота : 48,0 КГц
Битовая глубина : 16 бит
Метод сжатия : С потерями
Размер потока : 457 Мбайт (21%)
Язык : Russian
Default : Да
Forced : Нет

Текст #1
Идентификатор : 3
Формат : UTF-8
Идентификатор кодека : S_TEXT/UTF8
Идентификатор кодека/Информация : UTF-8 Plain Text
Язык : Russian
Default : Нет
Forced : Нет

Текст #2
Идентификатор : 4
Формат : UTF-8
Идентификатор кодека : S_TEXT/UTF8
Идентификатор кодека/Информация : UTF-8 Plain Text
Язык : English
Default : Нет
Forced : Нет

Текст #3
И
1bfeb0ec9a89ee218684ae65ed230fdd296f4a67Голодные игры / The Hunger Games (Гэри Росс, Фантастика, боевик, приключения, 2012) [BDRip-AVC, Дубляж, Sub] Голодные игры / The Hunger Games (Гэри Росс, Фантастика, боевик, приключения, 2012) [BDRip-AVC, Дубляж, Sub] " />

Аплоадер: Админ, дата: 19-08-2012, 09:04, торрент скачан: 359 раз

Понравилась раздача? Посмотрите эти:
  • Голодные игры / The Hunger Games (Гэри Росс, Фантастика, боевик, приключени ...
  • Голодные игры / The Hunger Games (Гэри Росс, Фантастика, боевик, приключени ...
  • Голодные игры / The Hunger Games (Гэри Росс, Фантастика, боевик, приключени ...
  • Голодные игры / The Hunger Games (Гэри Росс, Фантастика, боевик, приключени ...
  • Морской бой / Battleship (Питер Берг, Фантастика, боевик, триллер, приключе ...
  • Голодные игры / The Hunger Games (Гэри Росс, Фантастика, боевик, приключени ...
  • Голодные игры / The Hunger Games (Гэри Росс, Фантастика, боевик, приключени ...
  • Голодные игры / The Hunger Games (Гэри Росс, Фантастика, боевик, приключени ...
  • Голодные игры / The Hunger Games (Гэри Росс, Фантастика, боевик, приключени ...
  • Голодные игры / The Hunger Games (Гэри Росс, Фантастика, боевик, приключени ...
  • Голодные игры / The Hunger Games (Гэри Росс, Фантастика, боевик, приключени ...
  • Голодные игры / The Hunger Games (Гэри Росс, фантастика, боевик, приключени ...
  • Голодные игры / The Hunger Games (Гэри Росс, Фантастика, Боевик, Приключени ...
  • Голодные игры / The Hunger Games (Гэри Росс, Фантастика, боевик, приключени ...
  • Голодные игры / The Hunger Games (Гэри Росс, Фантастика, боевик, приключени ...
  • Голодные игры / The Hunger Games (Гэри Росс, фантастика, боевик, приключени ...
  • Голодные игры / The Hunger Games (Гэри Росс, фантастика, боевик, приключени ...
  • Голодные игры / The Hunger Games (Гэри Росс, фантастика, боевик, приключен ...
  • Голодные игры / The Hunger Games (Гэри Росс, Фантастика, Боевик, Приключени ...
  • Голодные игры / The Hunger Games (Гэри Росс, Фантастика, Боевик, Приключени ...
  • Информация
    Посетители, находящиеся в группе Гости, не могут оставлять комментарии к данной публикации.