вход на сайт

Имя пользователя :
Пароль :

Восстановление пароля Регистрация
Железное небо / Iron Sky (Тимо Вуоренсола, Фантастика, боевик, комедия, 2012) [BDRip-AVC, Дубляж, Профессиональный (двухголосый закадровый), Оригинал, Sub]
Рейтинг:
(голосов: 1)



[img]{THEME}/images/logopost.png[/img]



Железное небо / Iron Sky

Год выпуска: 2012
Страна:Германия, Финляндия,Австралия
Производство: Blind Spot Pictures Oy
Жанр: Фантастика, боевик, комедия

Режиссёр: Тимо Вуоренсола
В ролях: Юлия Дитце, Пета Сержант, Удо Кир, Ким Джексон, Стефани Пол, Гёц Отто, Кристофер Кирби, Моника Госсманн, Джим Нобелок, Юки Ивамото

Перевод:Дубляж, Профессиональный (двухголосый закадровый) [Кубик в кубе], Оригинал
Субтитры: Russian, English английские (вшитые, на немецкую речь)

Описание: Группа ученых под руководством офицера СС Ханса Каммлера добилась серьезных успехов по части антигравитации. Когда исход Второй Мировой войны стал очевиден, с антарктической базы гитлеровцы запустили несколько космических кораблей, чтобы их экипаж на темной стороне Луны основал секретную военную базу Schwarze Sonne (Черное Солнце). План Германии состоял в возведении мощной армады для решающего удара по Земле с последующим завоеванием планеты. И в 2018 году Четвертый Рейх перешел в наступление.

Качество: BDRip-AVC
Продолжительность: 01:32:33 час.


Формат: MKV
Видео кодек: x264
Аудио кодек: AC3
Видео: 1280x544 (2.35:1), 24 fps, x264 ~3 500 kbps avg, 0.209 bit/pixel
Аудио#1: 48 kHz, AC3 Dolby Digital, 3/2 (L,C,R,l,r) + LFE ch, ~448 kbps - (Russian)
Аудио#2: 48 kHz, AC3 Dolby Digital, 3/2 (L,C,R,l,r) + LFE ch, ~448 kbps- (Кубик в кубе)
Аудио#3: 48 kHz, AC3 Dolby Digital, 3/2 (L,C,R,l,r) + LFE ch, ~640 kbps - (English)

Дата премьеры (мир): 11 февраля 2012
Дата премьеры (РФ): 5 июля 2012, «All Media», «Utopia Pictures»

MediaInfo ▼General

Complete name : Iron.Sky.2012.720p.D.BDRip.720p.Goliaf.mkv
Format : Matroska
Format version : Version 2
File size : 3.26 GiB
Duration : 1h 32mn
Overall bit rate : 5 038 Kbps
Movie name : "Muxed by Goliaf"
Encoded date : UTC 2012-08-16 00:59:10
Writing application : mkvmerge v5.7.0 (The Whirlwind) built on Jul 8 2012 20:08:51
Writing library : libebml v1.2.3 + libmatroska v1.3.0

Video
ID : 1
Format : AVC
Format/Info : Advanced Video Codec
Format profile : [email protected]
Format settings, CABAC : Yes
Format settings, ReFrames : 9 frames
Codec ID : V_MPEG4/ISO/AVC
Duration : 1h 32mn
Bit rate : 3 500 Kbps
Width : 1 280 pixels
Height : 544 pixels
Display aspect ratio : 2.35:1
Frame rate : 24.000 fps
Color space : YUV
Chroma subsampling : 4:2:0
Bit depth : 8 bits
Scan type : Progressive
Bits/(Pixel*Frame) : 0.209
Stream size : 2.20 GiB (68%)
Title : EbP
Writing library : x264 core 125 r2200 999b753
Encoding settings : cabac=1 / ref=9 / deblock=1:-3:-3 / analyse=0x3:0x133 / me=tesa / subme=10 / psy=1 / psy_rd=1.20:0.00 / mixed_ref=1 / me_range=16 / chroma_me=1 / trellis=2 / 8x8dct=1 / cqm=0 / deadzone=21,11 / fast_pskip=0 / chroma_qp_offset=-2 / threads=18 / lookahead_threads=3 / sliced_threads=0 / nr=0 / decimate=0 / interlaced=0 / bluray_compat=0 / constrained_intra=0 / bframes=9 / b_pyramid=2 / b_adapt=2 / b_bias=0 / direct=3 / weightb=1 / open_gop=0 / weightp=2 / keyint=240 / keyint_min=24 / scenecut=40 / intra_refresh=0 / rc_lookahead=80 / rc=2pass / mbtree=1 / bitrate=3500 / ratetol=1.0 / qcomp=0.60 / qpmin=0 / qpmax=69 / qpstep=4 / cplxblur=20.0 / qblur=0.5 / ip_ratio=1.40 / aq=2:0.60
Language : English

Audio #1
ID : 2
Format : AC-3
Format/Info : Audio Coding 3
Mode extension : CM (complete main)
Codec ID : A_AC3
Duration : 1h 32mn
Bit rate mode : Constant
Bit rate : 448 Kbps
Channel(s) : 6 channels
Channel positions : Front: L C R, Side: L R, LFE
Sampling rate : 48.0 KHz
Bit depth : 16 bits
Compression mode : Lossy
Delay relative to video : 8s 20ms
Stream size : 297 MiB (9%)
Title : Dub [R5]
Language : Russian

Audio #2
ID : 3
Format : AC-3
Format/Info : Audio Coding 3
Mode extension : CM (complete main)
Codec ID : A_AC3
Duration : 1h 32mn
Bit rate mode : Constant
Bit rate : 448 Kbps
Channe
631c6f3f4098380d2de547db9bb3017e194b3a88Железное небо / Iron Sky (Тимо Вуоренсола, Фантастика, боевик, комедия, 2012) [BDRip-AVC, Дубляж, Профессиональный (двухголосый закадровый), Оригинал, Sub] Железное небо / Iron Sky (Тимо Вуоренсола, Фантастика, боевик, комедия, 2012) [BDRip-AVC, Дубляж, Профессиональный (двухголосый закадровый), Оригинал, Sub] " />

Аплоадер: Админ, дата: 16-08-2012, 16:35, торрент скачан: 359 раз

Понравилась раздача? Посмотрите эти:
  • За кадром... / In a World...(Лэйк Белл, комедия, 2013) [BDRip-AVC, Професси ...
  • Железное небо / Iron Sky (Тимо Вуоренсола, фантастика, боевик, комедия, 201 ...
  • Смерть на похоронах / Death at a Funeral (Нил ЛаБут, комедия, 2010) [BDRip ...
  • Железный Кулак [Театральная версия] / The Man with the Iron Fists [Theatric ...
  • Безопасность не гарантируется / Safety Not Guaranteed (Колин Треворроу, фан ...
  • Железное небо / Iron Sky (Тимо Вуоренсола, Фантастика, 2012) [BDRip-AVC, Пр ...
  • Железное небо / Iron Sky (Тимо Вуоренсола, Фантастика, боевик, комедия, 201 ...
  • Железное небо / Iron Sky (Тимо Вуоренсола, Фантастика, боевик, комедия, 201 ...
  • Железное небо / Iron Sky (Тимо Вуоренсола, Фантастика, боевик, комедия, 201 ...
  • Железное небо / Iron Sky (Тимо Вуоренсола, Фантастика, боевик, комедия, 201 ...
  • Коллекционер 2 / The Collection (Маркус Данстэн, ужасы, боевик, триллер , 2 ...
  • Рыжий пес / Red Dog (Крив Стендерс, драма, комедия, семейный, 2011) [BDRip ...
  • Похищенная / A Lonely Place to Die (Джулиан Джилби, триллер, криминал, прик ...
  • Мачо и ботан / 21 Jump Street (Фил Лорд, Крис Миллер, боевик, комедия, 2012 ...
  • «Весёлые» каникулы / Get the Gringo (Адриан Грюнберг, Боевик, комедия, 2012 ...
  • Ворон / The Raven (Джеймс МакТиг, Триллер, детектив, 2012) [BDRip 720p, Дуб ...
  • Железное небо / Iron Sky (Тимо Вуоренсола, Фантастика, боевик, комедия, 201 ...
  • Люди в черном 3 / Men in Black III (Барри Зонненфельд, Фантастика, боевик, ...
  • Семь футов / Seven Below (Кевин Каррауэй, Ужасы, триллер, 2012) [BDRip 720p ...
  • [EN] Железное небо / Iron Sky (Тимо Вуоренсола, Боевик,Комедия,Фантастика, ...
  • Железное небо / Iron Sky (Тимо Вуоренсола, Фантастика, 2012) [BDRip, Профес ...
  • Железное небо / Iron Sky (Тимо Вуоренсола, Фантастика, 2012) [HDRip, Профес ...
  • Железное небо / Iron Sky (Тимо Вуоренсола, фантастика, боевик, комедия, 201 ...
  • Железное небо / Iron Sky (Тимо Вуоренсола, Фантастика, боевик, комедия, 201 ...
  • Железное небо / Iron Sky (Тимо Вуоренсола, Фантастика, боевик, комедия, 201 ...
  • Информация
    Посетители, находящиеся в группе Гости, не могут оставлять комментарии к данной публикации.