вход на сайт

Имя пользователя :
Пароль :

Восстановление пароля Регистрация
Железное небо / Iron Sky (Тимо Вуоренсола, Фантастика, боевик, комедия, 2012) [BDRip-AVC, Дубляж, Оригинал, Sub]
Рейтинг:
(голосов: 1)



[img]{THEME}/images/logopost.png[/img]



Железное небо / Iron Sky

Год выпуска: 2012
Страна:Германия, Финляндия,Австралия
Производство: Blind Spot Pictures Oy
Жанр: Фантастика, боевик, комедия

Режиссёр: Тимо Вуоренсола
В ролях: Юлия Дитце, Пета Сержант, Удо Кир, Ким Джексон, Стефани Пол, Гёц Отто, Кристофер Кирби, Моника Госсманн, Джим Нобелок, Юки Ивамото

Перевод:Дубляж, Оригинал
Субтитры: русские, английские, английские (вшитые, на немецкую речь)

Описание: Группа ученых под руководством офицера СС Ханса Каммлера добилась серьезных успехов по части антигравитации. Когда исход Второй Мировой войны стал очевиден, с антарктической базы гитлеровцы запустили несколько космических кораблей, чтобы их экипаж на темной стороне Луны основал секретную военную базу Schwarze Sonne (Черное Солнце). План Германии состоял в возведении мощной армады для решающего удара по Земле с последующим завоеванием планеты. И в 2018 году Четвертый Рейх перешел в наступление.

Качество: BDRip-AVC
Продолжительность: 01:32:33 час.


Формат: MKV
Видео кодек: x264
Аудио кодек: AC3
Видео: 1040x442 (2.35:1), 24 fps, x264 ~1 869 kbps avg, 0.169 bit/pixel
Аудио#1: 48 kHz, AC3 Dolby Digital, 3/2 (L,C,R,l,r) + LFE ch, ~448 kbps - (Russian)
Аудио#2: 48 kHz, AC3 Dolby Digital, 3/2 (L,C,R,l,r) + LFE ch, ~448 kbps- (English)

Дата премьеры (мир): 11 февраля 2012
Дата премьеры (РФ): 5 июля 2012, «All Media», «Utopia Pictures»

MediaInfo ▼Общее
Уникальный идентификатор : 227758911567453314567197472577140882939 (0xAB58C5526B88E4B0A73A43A78918FDFB)
Полное имя : F:RG25KADRheleznoe.Nebo.2012.BDRip.x264.ac3.[by.L].mkv
Формат : Matroska
Версия формата : Version 2
Размер файла : 1,79 Гбайт
Продолжительность : 1 ч. 32 м.
Общий поток : 2767 Кбит/сек
Дата кодирования : UTC 2012-08-16 08:33:17
Программа кодирования : mkvmerge v3.2.0 (Beginnings) built on Feb 12 2010 16:46:17
Библиотека кодирования : libebml v0.7.9 + libmatroska v0.8.1

Видео
Идентификатор : 1
Формат : AVC
Формат/Информация : Advanced Video Codec
Профиль формата : [email protected]
Параметр CABAC формата : Да
Параметр ReFrames формата : 11 кадров
Идентификатор кодека : V_MPEG4/ISO/AVC
Продолжительность : 1 ч. 32 м.
Битрейт : 1869 Кбит/сек
Ширина : 1040 пикселей
Высота : 442 пикселя
Соотношение сторон : 2,35:1
Частота кадров : 24,000 кадра/сек
Цветовое пространство : YUV
Субдискретизация насыщенности : 4:2:0
Битовая глубина : 8 бит
Тип развёртки : Прогрессивная
Бит/(Пиксели*Кадры) : 0.169
Размер потока : 1,17 Гбайт (66%)
Библиотека кодирования : x264 core 120 r2164 da19765
Настройки программы : cabac=1 / ref=11 / deblock=1:-2:-1 / analyse=0x3:0x113 / me=umh / subme=11 / psy=1 / psy_rd=0.95:0.05 / mixed_ref=1 / me_range=32 / chroma_me=1 / trellis=2 / 8x8dct=1 / cqm=0 / deadzone=21,11 / fast_pskip=0 / chroma_qp_offset=-3 / threads=6 / sliced_threads=0 / nr=0 / decimate=1 / interlaced=0 / bluray_compat=0 / constrained_intra=0 / bframes=8 / b_pyramid=2 / b_adapt=1 / b_bias=0 / direct=1 / weightb=1 / open_gop=0 / weightp=2 / keyint=240 / keyint_min=22 / scenecut=40 / intra_refresh=0 / rc=2pass / mbtree=0 / bitrate=1869 / ratetol=1.0 / qcomp=0.70 / qpmin=10 / qpmax=61 / qpstep=4 / cplxblur=20.0 / qblur=0.5 / ip_ratio=1.40 / pb_ratio=1.30 / aq=2:0.70
Язык : English
Default : Нет
Forced : Нет

Аудио #1
Идентификатор : 2
Формат : AC-3
Формат/Информация : Audio Coding 3
Расширение режима : CM (complete main)
Идентификатор кодека : A_AC3
Продолжительность : 1 ч. 32 м.
Вид битрейта : Постоянный
Битрейт : 448 Кбит/сек
Каналы : 6 каналов
Расположение каналов : Front: L C R, Side: L R, LFE
Частота : 48,0 КГц
Битовая глубина : 16 бит
Метод сжатия : С потерями
Задержка видео : 7 с. 915 мс.
Размер потока : 297 Мбайт (16%)
Заголовок : Дубляж
Язык : Russian
Default : Да
Forced : Нет

Аудио #2
Идентификатор : 3
Формат : AC-3
Формат/Информация : Audio Coding 3
Расширение режима : CM (complete main)
Идентификатор кодека :
c1a4437875aeceb7c10d7d2eb331a63e7d248496Железное небо / Iron Sky (Тимо Вуоренсола, Фантастика, боевик, комедия, 2012) [BDRip-AVC, Дубляж, Оригинал, Sub] Железное небо / Iron Sky (Тимо Вуоренсола, Фантастика, боевик, комедия, 2012) [BDRip-AVC, Дубляж, Оригинал, Sub] " />

Аплоадер: Админ, дата: 16-08-2012, 15:16, торрент скачан: 359 раз

Понравилась раздача? Посмотрите эти:
  • Железное небо / Iron Sky (Тимо Вуоренсола, фантастика, боевик, комедия, 201 ...
  • Толстяк на ринге / Here Comes the Boom (Фрэнк Корачи, Боевик, комедия, 2012 ...
  • Железное небо / Iron Sky (Тимо Вуоренсола, Фантастика, 2012) [BDRip-AVC, Пр ...
  • Железное небо / Iron Sky (Тимо Вуоренсола, Фантастика, боевик, комедия, 201 ...
  • Железное небо / Iron Sky (Тимо Вуоренсола, Фантастика, боевик, комедия, 201 ...
  • Морской бой / Battleship (Питер Берг, фантастика, боевик, триллер, приключе ...
  • Морской бой / Battleship (Питер Берг, Фантастика, боевик, триллер, приключе ...
  • Железное небо / Iron Sky (Тимо Вуоренсола, Фантастика, боевик, комедия, 201 ...
  • Прометей / Prometheus (Ридли Скотт, Фантастика, триллер, приключения, 2012) ...
  • Железное небо / Iron Sky (Тимо Вуоренсола, Фантастика, боевик, комедия, 201 ...
  • Железное небо / Iron Sky (Тимо Вуоренсола, Фантастика, боевик, комедия, 201 ...
  • Железное небо / Iron Sky (Тимо Вуоренсола, фантастика, боевик, комедия, 201 ...
  • Невероятный Халк / The Incredible Hulk (Луи Летерье, фантастика, боевик, тр ...
  • [EN] Железное небо / Iron Sky (Тимо Вуоренсола, Боевик,Комедия,Фантастика, ...
  • Железное небо / Iron Sky (Тимо Вуоренсола, Фантастика, 2012) [BDRip, Профес ...
  • Железное небо / Iron Sky (Тимо Вуоренсола, Фантастика, 2012) [HDRip, Профес ...
  • Железное небо / Iron Sky (Тимо Вуоренсола, фантастика, боевик, комедия, 201 ...
  • Железное небо / Iron Sky (Тимо Вуоренсола, Фантастика, боевик, комедия, 201 ...
  • Железное небо / Iron Sky (Тимо Вуоренсола, фантастика, боевик, комедия, 201 ...
  • Железное небо / Iron Sky (Тимо Вуоренсола, Фантастика, боевик, комедия, 201 ...
  • Информация
    Посетители, находящиеся в группе Гости, не могут оставлять комментарии к данной публикации.