вход на сайт

Имя пользователя :
Пароль :

Восстановление пароля Регистрация
Морской бой / Battleship (Питер Берг, фантастика, боевик, триллер, приключения, военный, 2012) [BDRip-AVC, Любительский (одноголосый закадровый) + Оригинал + Sub]
Рейтинг:
(голосов: 1)



[img]{THEME}/images/logopost.png[/img]



Морской бой / Battleship
«Битва за Землю начнётся на воде»

Год выпуска: 2012
Страна: США
Производство: Battleship Delta Productions
Жанр: фантастика, боевик, триллер, приключения, военный

Режиссёр: Питер Берг
В ролях: Тейлор Китч, Александр Скарсгард, Рианна, Бруклин Декер, Таданобу Асано, Лиам Нисон, Джон Туи, Грегори Д. Гэдсон, Джесси Племонс, Хамиш Линклэйтер, Питер МакНикол, Джерри Феррара, Адам Годли, Рико МакКлинтон, Дзездзи Йошида, Луис Ломбарди, Стефен Бишоп, Данте Хименез, Остин Нолти, Джеймс Роулингс, Эндрю Серпас, Карсон Он, Даг Пенти, Джошуа Пенс, Питер Берг, Ллойд Питтс

Перевод: 1. Любительский (одноголосый закадровый) - Вячеслав Замез
2. Оригинал - English
Субтитры: Русские, английские

Описание: Мы посылаем сигналы в космос и ждем ответа. Но уверены ли мы, что хотим его получить? Что если пришельцы потенциально опасны? В 2009 году на конференции в Вашингтоне астронавт Эдгар Митчелл, побывавший на Луне, сделал сенсационное заявление о существовании внеземной жизни. Теперь мы знаем, контакт не просто возможен, он неизбежен!



Качество: BDRip-AVC
Продолжительность: 02:11:14 час.

Формат: MKV
Видео кодек: AVC
Аудио кодек: AC3 Dolby Digital
Видео: 960x400 (2.40:1), 23,976 fps, AVC ~2257 kbps avg, 0.245 bit/pixel
Аудио #1: 48 kHz, AC3 Dolby Digital, 3/2 (L,C,R,l,r) + LFE ch, 448 kbps avg - Любительский (одноголосый закадровый) - Вячеслав Замез
Аудио #2: 48 kHz, AC3 Dolby Digital, 3/2 (L,C,R,l,r) + LFE ch, 448 kbps avg - Оригинал - English

MediaInfo ▼General
Unique ID : 194330546058893535731187913775031296602 (0x9232B3A79E27E9B88F4EAF701910A25A)
Complete name : E:Battleship 2012.BDRip-AVC.Froloff777.mkv
Format : Matroska
File size : 2.89 GiB
Duration : 2h 11mn
Overall bit rate : 3 155 Kbps
Movie name : GORENOISE
Encoded date : UTC 2012-08-08 13:58:13
Writing application : mkvmerge v4.5.0 (Speed of Light) сборка от Feb 1 2011 02:10:32
Writing library : libebml v1.2.0 + libmatroska v1.1.0
Video
ID : 1
Format : AVC
Format/Info : Advanced Video Codec
Format profile : [email protected]
Format settings, CABAC : Yes
Format settings, ReFrames : 9 frames
Codec ID : V_MPEG4/ISO/AVC
Duration : 2h 11mn
Bit rate : 2 257 Kbps
Width : 960 pixels
Height : 400 pixels
Display aspect ratio : 2.40:1
Frame rate : 23.976 fps
Color space : YUV
Chroma subsampling : 4:2:0
Bit depth : 8 bits
Scan type : Progressive
Bits/(Pixel*Frame) : 0.245
Stream size : 2.01 GiB (70%)
Writing library : x264 core 124 r2197 69a0443
Encoding settings : cabac=1 / ref=9 / deblock=1:-2:-2 / analyse=0x3:0x113 / me=umh / subme=10 / psy=1 / psy_rd=1.00:0.10 / mixed_ref=1 / me_range=32 / chroma_me=1 / trellis=2 / 8x8dct=1 / cqm=0 / deadzone=21,11 / fast_pskip=0 / chroma_qp_offset=-3 / threads=3 / sliced_threads=0 / nr=0 / decimate=0 / interlaced=0 / bluray_compat=0 / constrained_intra=0 / bframes=9 / b_pyramid=2 / b_adapt=2 / b_bias=0 / direct=3 / weightb=1 / open_gop=0 / weightp=2 / keyint=250 / keyint_min=23 / scenecut=40 / intra_refresh=0 / rc_lookahead=120 / rc=2pass / mbtree=1 / bitrate=2257 / ratetol=1.0 / qcomp=0.70 / qpmin=0 / qpmax=69 / qpstep=4 / cplxblur=20.0 / qblur=0.5 / vbv_maxrate=50000 / vbv_bufsize=62500 / nal_hrd=none / ip_ratio=1.40 / aq=2:1.00
Language : English
Audio #1
ID : 2
Format : AC-3
Format/Info : Audio Coding 3
Mode extension : CM (complete main)
Codec ID : A_AC3
Duration : 2h 11mn
Bit rate mode : Constant
Bit rate : 448 Kbps
Channel(s) : 6 channels
Channel positions : Front: L C R, Side: L R, LFE
Sampling rate : 48.0 KHz
Bit depth : 16 bits
Compression mode : Lossy
Stream size : 421 MiB (14%)
Title : VO Zamez
Language : Russian
Audio #2
ID : 3
Format : AC-3
Format/Info : Audio Coding 3
Mode extension : CM (complete main)
Codec ID : A_AC3
Duration : 2h 11mn
Bit rate mode : Constant
Bit rate : 448 Kbps
Channel(s
f7c913e04dffbd5747015f2088876290f8acc6f9Морской бой / Battleship (Питер Берг, фантастика, боевик, триллер, приключения, военный, 2012) [BDRip-AVC, Любительский (одноголосый закадровый) + Оригинал + Sub] Морской бой / Battleship (Питер Берг, фантастика, боевик, триллер, приключения, военный, 2012) [BDRip-AVC, Любительский (одноголосый закадровый) + Оригинал + Sub] " />

Аплоадер: Админ, дата: 9-08-2012, 00:58, торрент скачан: 359 раз

Понравилась раздача? Посмотрите эти:
  • [Phone, iPod] Морской бой / Battleship (Питер Берг, фантастика, боевик, три ...
  • Морской бой / Battleship (Питер Берг, Фантастика, боевик, триллер, приключе ...
  • Морской бой / Battleship (Терри Майлз, фантастика, боевик, триллер, приключ ...
  • Морской бой / Battleship (Питер Берг, Фантастика, боевик, триллер, приключе ...
  • Морской бой / Battleship (Питер Берг, фантастика, боевик, триллер, приключе ...
  • Морской бой / Battleship (Питер Берг, Фантастика, боевик, триллер, приключе ...
  • Морской бой / Battleship (Питер Берг, фантастика, боевик, триллер, приключе ...
  • Морской бой / Battleship (Питер Берг, фантастика, боевик, триллер, приключе ...
  • Морской бой / Battleship (Питер Берг, фантастика, боевик, триллер, приключе ...
  • Морской бой / Battleship (Питер Берг, Фантастика, боевик, триллер, приключе ...
  • Морской бой / Battleship (Питер Берг, Фантастика, боевик, триллер, 2012г.) ...
  • Морской бой / Battleship (Питер Берг, Фантастика, боевик, триллер, приключе ...
  • Морской бой / Battleship (Питер Берг, фантастика, боевик, триллер, приключе ...
  • Морской бой / Battleship (Питер Берг, Фантастика, боевик, триллер, приключе ...
  • Морской бой / Battleship (Питер Берг, Фантастика, боевик, триллер, приключе ...
  • Морской бой / Battleship (Питер Берг, Фантастика, боевик, триллер, приключе ...
  • Морской бой / Battleship (Питер Берг, Фантастика, боевик, триллер, приключе ...
  • Морской бой / Battleship (Питер Берг, Фантастика, Боевик, Триллер, 2012) [3 ...
  • Морской бой / Battleship (Питер Берг, Фантастика, Боевик, Триллер, 2012) [4 ...
  • Морской бой / Battleship (Питер Берг, Фантастика, боевик, триллер, приключе ...
  • Морской бой / Battleship (Питер Берг, Фантастика, боевик, триллер, приключе ...
  • Морской бой / Battleship (Питер Берг, Фантастика, боевик, триллер, приключе ...
  • Морской бой / Battleship (Питер Берг, фантастика, боевик, триллер, приключ ...
  • Морской бой / Battleship (Питер Берг, фантастика, боевик, триллер, приключе ...
  • Морской бой / Battleship (Питер Берг / Peter Berg) (фантастика, боевик, три ...
  • Информация
    Посетители, находящиеся в группе Гости, не могут оставлять комментарии к данной публикации.