вход на сайт

Имя пользователя :
Пароль :

Восстановление пароля Регистрация
Любовь / Love (Уильям Юбэнк, Фантастика, драма, 2011) [BDRip-AVC, Профессиональный (многоголосый, закадровый)]
Рейтинг:
(голосов: 1)



[img]{THEME}/images/logopost.png[/img]



Любовь / Love

Год выпуска: 2011
Страна: США
Производство: Griffin Interplanetary Studios, Five VFX
Жанр: Фантастика, драма

Режиссёр: Уильям Юбэнк
В ролях: Ганнер Райт, Кори Ричардсон, Брэдли Хорн, Ненси Стилле, Роджер Е. Фантер, Джесси Хотчкисс,Трой Миттляйдер, Брид Кавенеу, Эмбир Чайлдерс, Б. Энтони Коэн

Перевод: Профессиональный (многоголосый, закадровый) [лицензия]
Субтитры: Отсутствуют

Описание: После потери связи с Землей, астронавт Ли Миллер остается без средств к существованию на орбите, в одиночестве на борту интернациональной космической станции. Время тикает и система жизнеобеспечения постепенно истощается, Ли сражается пытаясь сохранить здравомыслие — это самое простое, чтобы оставаться живым. Его миром становится одинокое существование в замкнутом пространстве, До тех пор пока он не сделал никому не известное открытие на борту корабля…Качество: BDRip-AVC
Продолжительность:01:24:01 час.


Формат: MKV
Видео кодек: x264
Аудио кодек: AC3
Видео: 1024x576 (16:9), 23.976 fps, x264 ~2 110 kbps avg, 0.149 bit/pixel
Аудио: 48 kHz, AC3 Dolby Digital, 3/2 (L,C,R,l,r) + LFE ch, ~384 kbps

Дата премьеры (мир): 2 февраля 2011
Дата премьеры (РФ): 7 июня 2012, «АКМ»

MediaInfo ▼Общее
Уникальный идентификатор : 235947170736183943939090827802957668615 (0xB181C5AB0F7E70C5B601E47375316107)
Полное имя : Ljubov.2011.P.BDRip.x264.potroks.mkv
Формат : Matroska
Версия формата : Version 2
Размер файла : 1,46 Гбайт
Продолжительность : 1 ч. 23 м.
Общий поток : 2494 Кбит/сек
Название фильма : -=POTROKS=-
Дата кодирования : UTC 2012-07-28 11:48:48
Программа кодирования : mkvmerge v5.6.0 (Kenya Kane) built on May 27 2012 16:44:04
Библиотека кодирования : libebml v1.2.3 + libmatroska v1.3.0

Видео
Идентификатор : 1
Формат : AVC
Формат/Информация : Advanced Video Codec
Профиль формата : [email protected]
Параметр CABAC формата : Да
Параметр ReFrames формата : 13 кадров
Идентификатор кодека : V_MPEG4/ISO/AVC
Продолжительность : 1 ч. 23 м.
Битрейт : 2110 Кбит/сек
Ширина : 1024 пикселя
Высота : 576 пикселей
Соотношение сторон : 16:9
Частота кадров : 23,976 кадра/сек
Цветовое пространство : YUV
Субдискретизация насыщенности : 4:2:0
Битовая глубина : 8 бит
Тип развёртки : Прогрессивная
Бит/(Пиксели*Кадры) : 0.149
Размер потока : 1,21 Гбайт (83%)
Заголовок : Ljubov.2011.P.BDRip.x264.potroks
Библиотека кодирования : x264 core 116 r2019M 9cc407d
Настройки программы : cabac=1 / ref=14 / deblock=1:-3:-3 / analyse=0x3:0x133 / me=umh / subme=10 / psy=1 / psy_rd=1.00:0.00 / mixed_ref=1 / me_range=32 / chroma_me=1 / trellis=2 / 8x8dct=1 / cqm=0 / deadzone=21,11 / fast_pskip=0 / chroma_qp_offset=-2 / threads=8 / sliced_threads=0 / nr=0 / decimate=1 / interlaced=0 / bluray_compat=0 / constrained_intra=0 / bframes=13 / b_pyramid=1 / b_adapt=2 / b_bias=0 / direct=3 / weightb=1 / open_gop=0 / weightp=2 / keyint=240 / keyint_min=23 / scenecut=40 / intra_refresh=0 / rc_lookahead=100 / rc=2pass / mbtree=1 / bitrate=2110 / ratetol=1.0 / qcomp=0.70 / qpmin=10 / qpmax=51 / qpstep=4 / cplxblur=20.0 / qblur=0.5 / vbv_maxrate=20000 / vbv_bufsize=25000 / nal_hrd=none / ip_ratio=1.35 / aq=1:0.80
Язык : English
Default : Да
Forced : Нет

Аудио
Идентификатор : 2
Формат : AC-3
Формат/Информация : Audio Coding 3
Расширение режима : CM (complete main)
Идентификатор кодека : A_AC3
Продолжительность : 1 ч. 23 м.
Вид битрейта : Постоянный
Битрейт : 384 Кбит/сек
Каналы : 6 каналов
Расположение каналов : Front: L C R, Side: L R, LFE
Частота : 48,0 КГц
Битовая глубина : 16 бит
Метод сжатия : С потерями
Размер потока : 230 Мбайт (15%)
Заголовок : MVO AC3, 5.1 ch., 384 kbps
Язык : Russian
Default : Да
Forced : Нет




&nbs
b2472bd5b454d7558362ab2f45961ff537589528Любовь / Love (Уильям Юбэнк, Фантастика, драма, 2011) [BDRip-AVC, Профессиональный (многоголосый, закадровый)] Любовь / Love (Уильям Юбэнк, Фантастика, драма, 2011) [BDRip-AVC, Профессиональный (многоголосый, закадровый)] " />

Аплоадер: Админ, дата: 28-07-2012, 21:51, торрент скачан: 359 раз

Понравилась раздача? Посмотрите эти:
  • Погнали! / Getaway (Кортни Соломон, боевик, криминал, 2013) [BDRip-AVC, Про ...
  • Невероятный Бёрт Уандерстоун / The Incredible Burt Wonderstone (Дон Скардин ...
  • Никто не выжил / No One Lives (Рюхэй Китамура, Триллер, ужасы, 2012) [BDRip ...
  • Летучий отряд Скотланд-Ярда / The Sweeney (Ник Лав, Боевик, драма, криминал ...
  • Залив / The Bay (Барри Левинсон, Ужасы, фантастика, триллер, 2012) [BDRip-A ...
  • Порочные игры / Stoker (Пак Чхан Ук, Триллер, драма, детектив, 2013) [BDRip ...
  • Порочные игры / Stoker (Пак Чхан Ук, Триллер, драма, детектив, 2013) [BDRip ...
  • Рикошет / Ricochet (Ник Гомез, драма, детектив, 2011) [BDRip-AVC, Профессио ...
  • Запретная любовь / The Edge of Love (Джон Мэйбери, Драма, мелодрама, военны ...
  • АББА: фильм / ABBA: The Movie (документальный, драма, музыка, 1977) [BDRip- ...
  • Бульвар спасения / Salvation Boulevard (Джордж Рэтлифф, боевик, триллер, др ...
  • Крученый мяч / Trouble with the Curve (Роберт Лоренц, Драма, 2012) [BDRip-A ...
  • Суррогат / The Sessions (Бен Луин, Драма, 2012) [BDRip-AVC, Профессиональны ...
  • Заражение / Contagion (Стивен Содерберг, триллер, драма, 2011) [BDRip-AVC, ...
  • Любовь / Love (Уильям Юбэнк, фантастика, драма, 2011) [HDRip-AVC, Профессио ...
  • Образец 47 / Marvel One-Shot: Item 47 (Луис Д’Эспозито, короткометражка, фа ...
  • Ищу друга на конец света / Seeking a Friend for the End of the World (Лорен ...
  • Судный день / The Day (Дуглас Арниокоски, фантастика, триллер, драма, 2011) ...
  • Эд Вуд / Ed Wood (Тим Бёртон, драма, комедия, биография, 1994) [BDRip-AVC, ...
  • Последняя любовь на Земле / Perfect Sense (Дэвид МакКензи, фантастика, драм ...
  • Охотник / The Hunter (Дэниэл Неттхейм, драма, приключения, 2011) [BDRip 108 ...
  • Любовь / Love (Уильям Юбэнк, Фантастика, драма, 2011) [BDRip 720p, Професси ...
  • Павшая империя / Hirokin (Алехо Мо-Сан, фантастика, боевик, драма, приключе ...
  • Любовь / Love (Уильям Юбэнк, Фантастика, драма, 2011) [HDRip, Профессиональ ...
  • Любовь / Love (Уильям Юбэнк, фантастика, драма, 2011) [HDRip, Профессиональ ...
  • Информация
    Посетители, находящиеся в группе Гости, не могут оставлять комментарии к данной публикации.