вход на сайт

Имя пользователя :
Пароль :

Восстановление пароля Регистрация
Первый мститель / Captain America: The First Avenger (Джо Джонстон , фантастика, боевик, приключения, 2011) [BDRip-AVC, Профессиональный (дублированный) + Оригинал]
Рейтинг:
(голосов: 1)



[img]{THEME}/images/logopost.png[/img]



Первый мститель / Captain America: The First Avenger

Год выпуска: 2011
Страна: США
Производство:
Жанр:фантастика, боевик, приключения

Режиссёр:Джо Джонстон
В ролях:Крис Эванс / Chris Evans, Томми Ли Джонс / Tommy Lee Jones, Хьюго Уивинг / Hugo Weaving, Доминик Купер / Dominic Cooper, Нил МакДонаф / Neal McDonough, Дерек Люк / Derek Luke, Стенли Туччи / Stanley Tucci, Хейли Этвелл / Hayley Atwell, Себастиан Стэн / Sebastian Stan, Ричард Армитэдж / Richard Armitage

Перевод:Профессиональный (дублированный) + Оригинал
Субтитры: Русские (форсированные + полные), английские

Описание
Стив Роджерс добровольно соглашается принять участие в эксперименте, который превратит его в супер солдата, известного как Первый мститель. Роджерс вступает в вооруженные силы США вместе с Баки Барнсом и Пегги Картер, чтобы бороться с враждебной организацией ГИДРА, которой управляет безжалостный Красный Череп.




Качество: BDRip-AVC
Продолжительность: 02:04:11

Формат: MKV
Видео кодек: H.264
Аудио кодек: AС3
Видео: 1120 x 476 (2.35:1 ), H.264, 2591 Kbps, 25.000 fps, 0.29 bit/pixel
Аудио 1: Русский , AC3 Dolby Digital , 48 KHz , 384 kbps , 3/2 (L,C,R,l,r) + LFE ch
Аудио 2: Английский , AC3 Dolby Digital , 48 KHz , 384 kbps , 3/2 (L,C,R,l,r) + LFE ch

"MediaInfo" ▼General
Unique ID : 207500000336572815361700412572546434152 (0x9C1B0BE194F7C007902FDA291E3D0468)
Complete name : I:OtherPervyi.Mstitel.2011.DUAL.BDRip-AVC.AC3.-HQ-ViDEO.mkv
Format : Matroska
Format version : Version 2
File size : 2.91 GiB
Duration : 2h 4mn
Overall bit rate : 3 356 Kbps
Movie name : Pervyi Mstitel / 2011 / Release by Vaippp / HQ-ViDEO
Encoded date : UTC 2011-10-17 04:43:29
Writing application : mkvmerge v5.0.1 (Es ist Sommer) built on Oct 9 2011 11:55:43
Writing library : libebml v1.2.2 + libmatroska v1.3.0

Video
ID : 1
Format : AVC
Format/Info : Advanced Video Codec
Format profile : [email protected]
Format settings, CABAC : Yes
Format settings, ReFrames : 13 frames
Codec ID : V_MPEG4/ISO/AVC
Duration : 2h 4mn
Bit rate : 2 587 Kbps
Width : 1 120 pixels
Height : 476 pixels
Display aspect ratio : 2.35:1
Frame rate : 23.976 fps
Color space : YUV
Chroma subsampling : 4:2:0
Bit depth : 8 bits
Scan type : Progressive
Bits/(Pixel*Frame) : 0.202
Stream size : 2.19 GiB (75%)
Title : BDRip 17/10/2011
Writing library : x264 core 118 r2085 8a62835
Encoding settings : cabac=1 / ref=13 / deblock=1:-2:-1 / analyse=0x3:0x113 / me=umh / subme=10 / psy=1 / psy_rd=0.95:0.05 / mixed_ref=1 / me_range=48 / chroma_me=1 / trellis=2 / 8x8dct=1 / cqm=0 / deadzone=21,11 / fast_pskip=0 / chroma_qp_offset=-2 / threads=12 / sliced_threads=0 / nr=0 / decimate=1 / interlaced=0 / bluray_compat=0 / constrained_intra=0 / bframes=15 / b_pyramid=2 / b_adapt=2 / b_bias=0 / direct=3 / weightb=1 / open_gop=0 / weightp=2 / keyint=250 / keyint_min=23 / scenecut=40 / intra_refresh=0 / rc_lookahead=60 / rc=2pass / mbtree=1 / bitrate=2587 / ratetol=1.0 / qcomp=0.65 / qpmin=0 / qpmax=69 / qpstep=4 / cplxblur=20.0 / qblur=0.5 / vbv_maxrate=40000 / vbv_bufsize=30000 / nal_hrd=none / ip_ratio=1.40 / aq=2:0.90 / zones=163692,167336,b=0.5/167337,176772,q=35
Language : English
Matrix coefficients : BT.709-5, BT.1361, IEC 61966-2-4 709, SMPTE RP177

Audio #1
ID : 2
Format : AC-3
Format/Info : Audio Coding 3
Mode extension : CM (complete main)
Codec ID : A_AC3
Duration : 2h 4mn
Bit rate mode : Constant
Bit rate : 384 Kbps
Channel(s) : 6 channels
Channel positions : Front: L C R, Side: L R, LFE
Sampling rate : 48.0 KHz
Bit depth : 16 bits
Compression mode : Lossy
Stream size : 341 MiB (11%)
Title : DUB @ Blu-Ray CEE
Language : Russian

Audio #2
ID : 3
Format : AC-3
Format/Info : Audio Coding 3
Mode extension : CM (complete main)
Codec ID : A_AC3
Duration : 2h 4mn
Bit rate mode : Constant
Bit r
fec1bfa0c15e5eee9c3817a9bde359589caaa7c0Первый мститель / Captain America: The First Avenger (Джо Джонстон , фантастика, боевик, приключения, 2011) [BDRip-AVC, Профессиональный (дублированный) + Оригинал] Первый мститель / Captain America: The First Avenger (Джо Джонстон , фантастика, боевик, приключения, 2011) [BDRip-AVC, Профессиональный (дублированный) + Оригинал] " />

Аплоадер: Админ, дата: 21-07-2012, 21:06, торрент скачан: 359 раз

Понравилась раздача? Посмотрите эти:
  • Пастырь / Priest (Скотт Чарльз Стюарт, ужасы, фантастика, боевик, триллер, ...
  • Хроника / Chronicle (Джошуа Транк, фантастика, боевик, триллер, драма, 2012 ...
  • Первый мститель / Captain America: The First Avenger (Джо Джонстон, Фантаст ...
  • [3D] Первый мститель / Captain America: The First Avenger (Джо Джонстон / J ...
  • Первый мститель / Captain America: The First Avenger (Джо Джонстон, Фантаст ...
  • Убить по расписанию / Ticking Clock (Эрни Барбараш, фантастика, боевик, три ...
  • Первый мститель / Captain America: The First Avenger (Джо Джонстон, Фэнтези ...
  • Первый мститель / Captain America: The First Avenger (Джо Джонстон , фантас ...
  • Первый мститель / Captain America: The First Avenger (Джо Джонстон,фантасти ...
  • Первый мститель / Captain America: The First Avenger (Джо Джонстон / Фантас ...
  • Супер 8 / Super 8 (Джей Джей Абрамс , фантастика , триллер , детектив ,2011 ...
  • Неизвестный / Unknown (Жауме Серра / Jaume Collet-Serra, триллер, драма, де ...
  • Кунг-фу Панда 2 / Kung Fu Panda 2 (Дженнифер Ю, мультфильм, боевик, комеди ...
  • [3D] Первый мститель 3Д / Captain America: The First Avenger 3D (Джо Джонст ...
  • Исходный код / Source Code (Дункан Джонс, фантастика, боевик, триллер, 2011 ...
  • Первый мститель / Captain America: The First Avenger (Джо Джонстон, Фэнтези ...
  • Первый мститель / Captain America: The First Avenger (Джо Джонстон, фантаст ...
  • Mylene Farmer / Du Temps [2011, Pop, HDTVRip]
  • Mylene Farmer / Bleu Noir [2011, Pop, HDTVRip]
  • Первый мститель / Captain America: The First Avenger (Джо Джонстон, Фантаст ...
  • Первый мститель / Captain America: The First Avenger (Джо Джонстон, фантаст ...
  • [3D] Капитан америка: Первый мститель / Captain America: The First Avenger ...
  • Первый мститель / Captain America: The First Avenger (Джо Джонстон, фантаст ...
  • [3D] Первый мститель 3D / Captain America: The First Avenger 3D (Джо Джонст ...
  • Первый мститель / Captain America: The First Avenger (Джо Джонстон, Фантаст ...
  • Информация
    Посетители, находящиеся в группе Гости, не могут оставлять комментарии к данной публикации.