вход на сайт

Имя пользователя :
Пароль :

Восстановление пароля Регистрация
Повторяющие / Repeaters (Карл Бессай, фантастика, боевик, триллер, драма, криминал, 2010) [BDRip-AVC, Профессиональный (многоголосый, закадровый) + Любительский (двухголосый закадровый) + Любительский (одноголосый закадровый) + Оригинал + Sub]
Рейтинг:
(голосов: 1)



[img]{THEME}/images/logopost.png[/img]



Повторяющие / Repeaters
«Они попробовали жить, не отвечая ни за что...»

Год выпуска: 2010
Страна: Канада
Производство: Rampart Films, Raven West Films Ltd, Resonance Film & Video
Жанр: фантастика, боевик, триллер, драма, криминал

Режиссёр: Карл Бессай
В ролях: Дастин Миллиган, Аманда Крю, Ричард де Клерк, Алексия Фаст, Габриель Роз, Хротгар Мэтьюз, Бенжамин Рэтнер, Том Шолте, Майкл Адамуэйт, Маной Суд, и др.

Перевод: Профессиональный (многоголосый закадровый) - (R5)
+ Оригинал - (English)
+ Любительский (двухголосый закадровый) - R.G. Jolly Roger - отдельно
+ Любительский (одноголосый закадровый) - RelizLab - отдельно
Субтитры: Русские, английские

Описание: Трое молодых пациентов реабилитационной клиники застряли в ловушке времени. Каждый день они просыпаются в одном и том же чудовищном дне. И каждый день им необходимо его пережить. Можно ли остаться человеком в этом бесконечно повторяющемся лабиринте?



Качество: BDRip-AVC
Продолжительность: 01:33:03 час.

Формат: MKV
Видео кодек: AVC
Аудио кодек: AC3 Dolby Digital
Видео: 1024х576 (16:9), 23,976 fps, AVC ~2 716 kbps avg, 0.179 bit/pixel
Аудио #1: 48 kHz, AC3 Dolby Digital, 3/2 (L,C,R,l,r) + LFE ch, ~384.00 kbps avg - Дублированный
Аудио #2: 48 kHz, AC3 Dolby Digital, 3/2 (L,C,R,l,r) + LFE ch, ~384.00 kbps avg - Оригинал - (English)
Аудио #3: 48 kHz, AC3 Dolby Digital, 2 ch, ~192.00 kbps avg - Любительский (двухголосый закадровый) - R.G. Jolly Roger - отдельно
Аудио #4: 48 kHz, AC3 Dolby Digital, 3/2 (L,C,R,l,r) + LFE ch, ~384.00 kbps avg - Любительский (одноголосый закадровый) - RelizLab - отдельно

MediaInfo ▼C:Povtoryayushchie.Realnost.2010.x264.BDRip.(AVC)Povtoryayushchie.Realnost.2010.x264.BDRip.(AVC).mkv
General
Complete name : C:Povtoryayushchie.Realnost.2010.x264.BDRip.(AVC)Povtoryayushchie.Realnost.2010.x264.BDRip.(AVC).mkv
Format : Matroska
File size : 2.18 GiB
Duration : 1h 33mn
Overall bit rate : 3 361 Kbps
Encoded date : UTC 2012-07-11 05:55:24
Writing application : mkvmerge v4.6.0 (Still Crazy After All These Years) сборка от Apr 1 2011 21:01:49
Writing library : libebml v1.2.0 + libmatroska v1.1.0
Video #1
ID : 1
Format : AVC
Format/Info : Advanced Video Codec
Format profile : [email protected]
Format settings, CABAC : Yes
Format settings, ReFrames : 10 frames
Muxing mode : Container [email protected]
Codec ID : V_MPEG4/ISO/AVC
Duration : 1h 32mn
Bit rate : 2 526 Kbps
Nominal bit rate : 2 716 Kbps
Width : 1 024 pixels
Height : 576 pixels
Display aspect ratio : 16:9
Frame rate : 23.976 fps
Resolution : 8 bits
Colorimetry : 4:2:0
Scan type : Progressive
Bits/(Pixel*Frame) : 0.179
Stream size : 1.64 GiB (75%)
Title : Povtoryayushchie ryealnost / Repeaters
Writing library : x264 core 125 r2200 999b753
Encoding settings : cabac=1 / ref=10 / deblock=1:-3:-3 / analyse=0x3:0x133 / me=umh / subme=10 / psy=1 / psy_rd=1.00:0.10 / mixed_ref=1 / me_range=48 / chroma_me=1 / trellis=2 / 8x8dct=1 / cqm=0 / deadzone=21,11 / fast_pskip=0 / chroma_qp_offset=-3 / threads=6 / lookahead_threads=1 / sliced_threads=0 / nr=0 / decimate=1 / interlaced=0 / bluray_compat=0 / constrained_intra=0 / bframes=6 / b_pyramid=2 / b_adapt=2 / b_bias=0 / direct=3 / weightb=1 / open_gop=0 / weightp=2 / keyint=240 / keyint_min=22 / scenecut=40 / intra_refresh=0 / rc_lookahead=40 / rc=2pass / mbtree=1 / bitrate=2716 / ratetol=1.0 / qcomp=0.60 / qpmin=10 / qpmax=51 / qpstep=4 / cplxblur=20.0 / qblur=0.5 / ip_ratio=1.40 / aq=1:1.00
Audio #2
ID : 2
Format : AC-3
Format/Info : Audio Coding 3
Codec ID : A_AC3
Duration : 1h 33mn
Bit rate mode : Constant
Bit rate : 384 Kbps
Channel(s) : 6 channels
Channel positions : Front: L C R, Surround: L R, LFE
Sampling rate : 48.0 KHz
Stream size : 256 MiB (11%)
Title : MVO (R5)
Language : Russian
Audio #3
ID : 3
Format : AC-3
Format/Info : Audio Coding 3
Codec ID : A_AC3
Duration : 1h 33mn
Bit rate mode : Constant
Bit rate : 384 Kbps
Channel(s) : 6 channels
Channel positions : Front: L C R, Surround: L R, LF
b0f33e031d795418f1f47b57bdbef00222cf7968Повторяющие / Repeaters (Карл Бессай, фантастика, боевик, триллер, драма, криминал, 2010) [BDRip-AVC, Профессиональный (многоголосый, закадровый) + Любительский (двухголосый закадровый) + Любительский (одноголосый закадровый) + Оригинал + Sub] Повторяющие / Repeaters (Карл Бессай, фантастика, боевик, триллер, драма, криминал, 2010) [BDRip-AVC, Профессиональный (многоголосый, закадровый) + Любительский (двухголосый закадровый) + Любительский (одноголосый закадровый) + Оригинал + Sub] " />

Аплоадер: Админ, дата: 19-07-2012, 17:00, торрент скачан: 359 раз

Понравилась раздача? Посмотрите эти:
  • Ледяной / The Iceman (Ариэль Вромен, драма, криминал, биография, 2013) [BDR ...
  • Кровью и потом: Анаболики / Pain & Gain (Майкл Бэй, криминал, комедия, трил ...
  • Птицы / The Birds (Альфред Хичкок, Ужасы, триллер, 1963) [BDRip-AVC, Профес ...
  • Честь дракона / Tom yum goong (Прачья Пинкаю, боевик, триллер, драма, крим ...
  • Убить по расписанию / Ticking Clock (Эрни Барбараш, фантастика, боевик, три ...
  • Дитя человеческое / Children of Men (Альфонсо Куарон, фантастика, триллер, ...
  • Ковбои против пришельцев / Cowboys & Aliens [Расширенная версия](Джон Фавро ...
  • Джона Хекс / Jonah Hex (Джимми Хейуорд, боевик, триллер, драма, вестерн, 20 ...
  • Вальгалла: Сага о викинге / Valhalla Rising (Николас Виндинг Рёфн, боевик, ...
  • Репортаж из преисподней / [REC] 2 (Жауме Балагуэро, Пако Пласа, ужасы, трил ...
  • Пир / Feast (Джон Гулажер, ужасы, боевик, триллер, комедия, 2005) [BDRip-AV ...
  • Пришелец / Impostor (Гэри Фледер, фантастика, боевик, триллер, драма, 2001) ...
  • Морской бой / Battleship (Питер Берг, фантастика, боевик, триллер, приключе ...
  • Ромео должен умереть / Romeo Must Die (Анджей Бартковяк, Боевик, триллер, к ...
  • Идеальный Голос / Pitch Perfect (Джейсон Мур, Комедия, музыка, 2012) [BDRip ...
  • Роб Рой / Rob Roy (Майкл Кейтон-Джонс, боевик, драма, мелодрама, 1995) [BDR ...
  • Звездный десант: Вторжение / Starship Troopers: Invasion (Синдзи Арамаки, м ...
  • Китайский квартал / Chinatown (Роман Полански, Триллер, драма, криминал, де ...
  • Пираньи 3DD / Piranha 3DD (Джон Гулажер, ужасы, триллер, комедия, 2012) [BD ...
  • Слова / The Words [EXTENDED] (Ли Стернтал, Драма, мелодрама, 2012) [BDRip 7 ...
  • Викинги / Outlander (Ховард МакКейн, Фантастика, боевик, приключения, 2008) ...
  • Повторяющие / Repeaters (Карл Бессай, фантастика, триллер, драма,2010) [DVD ...
  • Повторяющие / Repeaters (режиссёр, фантастика, триллер, драма, 2010) [DVDRi ...
  • Повторяющие реальность / Repeaters (Карл Бессай, фантастика, боевик, трилле ...
  • Повторяющие реальность / Repeaters (Карл Бессай, фантастика, триллер, драма ...
  • Информация
    Посетители, находящиеся в группе Гости, не могут оставлять комментарии к данной публикации.