вход на сайт

Имя пользователя :
Пароль :

Восстановление пароля Регистрация
Пришелец / Impostor (Гэри Фледер, фантастика, боевик, триллер, драма, 2001) [BDRip-AVC, Дублированный + Профессиональный (двухголосый закадровый) + Авторский (одноголосый закадровый) + Оригинал]
Рейтинг:
(голосов: 1)



[img]{THEME}/images/logopost.png[/img]



Пришелец / Impostor
«In the Future, not everyone is who they seem to be.»

Год выпуска: 2001
Страна: США
Производство: Dimension Films, Marty Katz Productions, Mojo Films
Жанр: фантастика, боевик, триллер, драма

Режиссёр: Гэри Фледер
В ролях: Гэри Синиз, Мэдлин Стоу, Винсент ДОнофрио, Шэлоуб Тони, Тим Гини, Элизабет Пенья, Гэри Дурдэн, Линдсэй Краузе, Мекхи Файфер, Джон Папсидера

Перевод: Дублированный
+ Профессиональный (двухголосый закадровый) - (НТВ)
+ Авторский (одноголосый закадровый) - (А. Гаврилов)
+ Оригинал - (English)
Субтитры: Отсутствуют

Описание: 2079 год. Уже много лет земляне ведут войну с инопланетянами. Талантливый ученый Спенсер Олхэм создает уникальное оружие для борьбы с ними. Но в один прекрасный день его самого объявляют пришельцем и начинают широкомасштабную охоту.

В ситуации, когда его ищут все спецслужбы страны, Спенсер должен доказать свою невиновность и понять, кто он есть на самом деле…



Качество: BDRip-AVC
Продолжительность: 1h 42mn

Формат: MKV
Видео кодек: AVC
Аудио кодек: AC3 Dolby Digital
Видео: 1 088x612 (16:9), 23,976 fps, AVC ~2 417 kbps avg, 0.151 bit/pixel
Аудио #1: 48 kHz, AC3 Dolby Digital, 3/2 (L,C,R,l,r) + LFE ch, ~384.00 kbps avg - Дублированный
Аудио #2: 48 kHz, AC3 Dolby Digital, 3/2 (L,C,R,l,r) + LFE ch, ~384.00 kbps avg - Профессиональный (двухголосый закадровый) - (НТВ)
Аудио #3: 48 kHz, AC3 Dolby Digital, 3/2 (L,C,R,l,r) + LFE ch, ~384.00 kbps avg - Авторский (одноголосый закадровый) - (А. Гаврилов)
Аудио #4: 48 kHz, AC3 Dolby Digital, 3/2 (L,C,R,l,r) + LFE ch, ~384.00 kbps avg - Оригинал - (English)

MediaInfo ▼General
Unique ID : 210744173424347414379299119143022615284 (0x9E8BD9F6AE6D30AD919E33B42C2DDAF4)
Complete name : E:Impostor.mkv
Format : Matroska
Format version : Version 2
File size : 2.88 GiB
Duration : 1h 42mn
Overall bit rate : 4 033 Kbps
Encoded date : UTC 2012-07-15 10:45:42
Writing application : mkvmerge v5.6.0 (Kenya Kane) built on May 27 2012 16:44:04
Writing library : libebml v1.2.3 + libmatroska v1.3.0
Video
ID : 1
Format : AVC
Format/Info : Advanced Video Codec
Format profile : [email protected]
Format settings, CABAC : Yes
Format settings, ReFrames : 12 frames
Codec ID : V_MPEG4/ISO/AVC
Duration : 1h 42mn
Bit rate : 2 417 Kbps
Nominal bit rate : 2 760 Kbps
Width : 1 088 pixels
Height : 612 pixels
Display aspect ratio : 16:9
Frame rate : 23.976 fps
Color space : YUV
Chroma subsampling : 4:2:0
Bit depth : 8 bits
Scan type : Progressive
Bits/(Pixel*Frame) : 0.151
Stream size : 1.73 GiB (60%)
Title : AVC (x264) [email protected] fps 16:9 ~ 2760 kBit/s 2-pass High 4.1
Writing library : x264 core 122 r2184bm 5c85e0a
Encoding settings : cabac=1 / ref=12 / deblock=1:-2:-2 / analyse=0x3:0x133 / me=umh / subme=10 / psy=1 / psy_rd=1.00:0.05 / mixed_ref=1 / me_range=32 / chroma_me=1 / trellis=2 / 8x8dct=1 / cqm=0 / deadzone=21,11 / fast_pskip=0 / chroma_qp_offset=-3 / threads=6 / sliced_threads=0 / nr=0 / decimate=0 / interlaced=0 / bluray_compat=0 / constrained_intra=0 / bframes=12 / b_pyramid=2 / b_adapt=2 / b_bias=0 / direct=3 / weightb=1 / open_gop=0 / weightp=2 / keyint=250 / keyint_min=23 / scenecut=40 / intra_refresh=0 / rc=2pass / mbtree=0 / bitrate=2760 / ratetol=1.0 / qcomp=0.90 / qpmin=0 / qpmax=69 / qpstep=4 / cplxblur=20.0 / qblur=0.5 / ip_ratio=1.40 / pb_ratio=1.45 / aq=2:0.90
Language : English
Default : Yes
Forced : No
Audio #1
ID : 2
Format : AC-3
Format/Info : Audio Coding 3
Mode extension : CM (complete main)
Format settings, Endianness : Big
Codec ID : A_AC3
Duration : 1h 42mn
Bit rate mode : Constant
Bit rate : 384 Kbps
Channel(s) : 6 channels
Channel positions : Front: L C R, Side: L R, LFE
Sampling rate : 48.0 KHz
Bit depth : 16 bits
Compression mode : Lossy
Delay relative to video : 10ms
Stream size : 281 MiB (10%)
Title : Дубляж Мосфильм AC3 384 kBit/s 48 kHz 5.1 DD
Language : Russian
Default : Yes
Forced : No
22da99cfabc4f40ed3f829f293c725177699e07bПришелец / Impostor (Гэри Фледер, фантастика, боевик, триллер, драма, 2001) [BDRip-AVC, Дублированный + Профессиональный (двухголосый закадровый) + Авторский (одноголосый закадровый) + Оригинал] Пришелец / Impostor (Гэри Фледер, фантастика, боевик, триллер, драма, 2001) [BDRip-AVC, Дублированный + Профессиональный (двухголосый закадровый) + Авторский (одноголосый закадровый) + Оригинал] " />

Аплоадер: Админ, дата: 18-07-2012, 20:23, торрент скачан: 359 раз

Понравилась раздача? Посмотрите эти:
  • Ордер на смерть / Death warrant (Деран Сарафян, Боевик, драма, криминал, де ...
  • Муви 43 / Movie 43 (Стивен Брилл, Питер Фаррелли, Элизабет БэнксСтивен, ком ...
  • Пришелец / Impostor [2001, Фантастика, Боевик, Триллер, Драма, DVDRip]
  • Пришелец / Impostor (Гэри Фледер, фантастика, боевик 2001) [HDTVRip-AVC про ...
  • Класс 1999 года / Class of 1999 (Марк Л. Лестер, ужасы, фантастика, боевик, ...
  • Война / War (Филлип Дж. Этвелл, боевик, триллер, криминал, 2007) [BDRip-AVC ...
  • Американский психопат / American Psycho (Мэри Хэррон, триллер, драма, крими ...
  • Под откос / Derailed (Боб Мисиоровски, боевик, триллер, 2002) [HDRip-AVC, П ...
  • Репортаж из преисподней / [REC] 2 (Жауме Балагуэро, Пако Пласа, ужасы, трил ...
  • Пир / Feast (Джон Гулажер, ужасы, боевик, триллер, комедия, 2005) [BDRip-AV ...
  • Видение / Dreamscape (Джозеф Рубен, ужасы, фантастика, триллер, приключения ...
  • Спаун / Отродие / Spawn (Марк Э. З. Диппе, фэнтези, боевик, триллер, 1997) ...
  • Повторяющие / Repeaters (Карл Бессай, фантастика, боевик, триллер, драма, к ...
  • Ночное дежурство / Nightwatch (Оле Борнедаль, ужасы, триллер, драма, 1997) ...
  • Охота за "Красным Октябрём" / The Hunt for "Red October" (Джон МакТирнан, б ...
  • Ромео должен умереть / Romeo Must Die (Анджей Бартковяк, Боевик, триллер, к ...
  • Любимые / The Loved Ones (Шон Бирн, ужасы, триллер, драма, 2009) [BDRip-AVC ...
  • Одиночка / A Man Apart (Ф. Гэри Грей, боевик, триллер, драма, криминал, 200 ...
  • Роб Рой / Rob Roy (Майкл Кейтон-Джонс, боевик, драма, мелодрама, 1995) [BDR ...
  • Красавчик Джонни / Johnny Handsome (Уолтер Хилл, Триллер, драма, криминал, ...
  • Специалист / The Specialist (Луис Льоса, боевик, триллер, 1994) [BDRip 1080 ...
  • Китайский квартал / Chinatown (Роман Полански, Триллер, драма, криминал, де ...
  • Пираньи 3DD / Piranha 3DD (Джон Гулажер, ужасы, триллер, комедия, 2012) [BD ...
  • Викинги / Outlander (Ховард МакКейн, Фантастика, боевик, приключения, 2008) ...
  • Пришелец / Impostor (Гэри Фледер, фантастика, боевик, триллер, драма, 2001) ...
  • Информация
    Посетители, находящиеся в группе Гости, не могут оставлять комментарии к данной публикации.