вход на сайт

Имя пользователя :
Пароль :

Восстановление пароля Регистрация
Напролом / Lockout [UNRATED] (Джеймс Мэтер, Стивен Ст. Леджер, Фантастика, боевик, триллер, 2012) [HDRip-AVC, Дубляж, Оригинал, Sub]
Рейтинг:
(голосов: 1)



[img]{THEME}/images/logopost.png[/img]



Напролом / Lockout [UNRATED]

Год выпуска: 2012
Страна: Франция
Производство: Canal+
Жанр: Фантастика, боевик, триллер

Режиссёр: Джеймс Мэтер, Стивен Ст. Леджер
В ролях: Гай Пирс, Мэгги Грэйс, Винсент Риган, Джозеф Гилган, Ленни Джеймс, Петер Стормаре, Джеки Идо, Тим Плестер, Марк Танкерсли, Энн-Соленн Хатте

Перевод: Дубляж, Оригинал
Субтитры: Russian [Voronine], English

Описание: Орбитальная станция MS1 — крупнейшая космическая тюрьма, где в анабиозе содержатся тысячи опасных преступников. Ходят слухи, что над погруженными в искусственный сон узниками проводятся противозаконные эксперименты. С расследованием на станцию отправлена комиссия во главе с Эмили Уорнок, дочерью президента США.

Неожиданно ситуация выходит из-под контроля, и вся станция оказывается захвачена уголовниками. Спецагент Сноу, несправедливо обвиненный в государственной измене, получает задание проникнуть в самую неприступную тюрьму во Вселенной и спасти Эмили. Это его единственный шанс вернуть себе доброе имя и получить свободу.Качество: HDRip-AVC
Продолжительность: 01:35:19 час.

Формат: MKV
Видео кодек: x264
Аудио кодек:AC3
Видео: 1184x496 (2:40:1), 23.976 fps, x264 ~2 327 kbps avg, 0.165 bit/pixel
Аудио#1: 48 kHz, AC3 Dolby Digital, 3/2 (L,C,R,l,r) + LFE ch, ~448 kbps (RUS)
Аудио#2: 48 kHz, AC3 Dolby Digital, 3/2 (L,C,R,l,r) + LFE ch, ~448 kbps (ENG)



Дата премьеры (мир): 7 апреля 2012
Дата премьеры (РФ): 17 мая 2012, «Вольга»

MediaInfo ▼Полное имя : D:Napralom.2012.D.HDRip-AVC.(Unrated)..mkv
Формат : Matroska
Версия формата : Version 2
Размер файла : 2,14 Гбайт
Продолжительность : 1 ч. 35 м.
Общий поток : 3218 Кбит/сек
Название фильма : Release by Lelya_K for
Дата кодирования : UTC 2012-07-13 11:04:46
Программа кодирования : mkvmerge v5.6.0 (Kenya Kane) built on May 27 2012 16:44:04
Библиотека кодирования : libebml v1.2.3 + libmatroska v1.3.0

Видео
Идентификатор : 1
Формат : AVC
Формат/Информация : Advanced Video Codec
Профиль формата : [email protected]
Параметр CABAC формата : Да
Параметр ReFrames формата : 14 кадров
Идентификатор кодека : V_MPEG4/ISO/AVC
Продолжительность : 1 ч. 35 м.
Битрейт : 2321 Кбит/сек
Ширина : 1184 пикселя
Высота : 496 пикселей
Соотношение сторон : 2,40:1
Частота кадров : 23,976 кадра/сек
Цветовое пространство : YUV
Субдискретизация насыщенности : 4:2:0
Битовая глубина : 8 бит
Тип развёртки : Прогрессивная
Бит/(Пиксели*Кадры) : 0.165
Размер потока : 1,50 Гбайт (70%)
Заголовок : Напролом / Lockout (2012) [H.264] HDRip (Unrated)
Библиотека кодирования : x264 core 116 r2044 392e762
Настройки программы : cabac=1 / ref=14 / deblock=1:-1:-1 / analyse=0x3:0x133 / me=umh / subme=11 / psy=1 / psy_rd=1.00:0.00 / mixed_ref=0 / me_range=48 / chroma_me=1 / trellis=2 / 8x8dct=1 / cqm=0 / deadzone=21,11 / fast_pskip=1 / chroma_qp_offset=-2 / threads=12 / sliced_threads=0 / nr=0 / decimate=1 / interlaced=0 / bluray_compat=0 / constrained_intra=0 / bframes=16 / b_pyramid=2 / b_adapt=2 / b_bias=0 / direct=3 / weightb=1 / open_gop=0 / weightp=2 / keyint=250 / keyint_min=23 / scenecut=40 / intra_refresh=0 / rc_lookahead=60 / rc=2pass / mbtree=1 / bitrate=2321 / ratetol=1.0 / qcomp=0.60 / qpmin=0 / qpmax=69 / qpstep=4 / cplxblur=20.0 / qblur=0.5 / ip_ratio=1.40 / aq=1:1.00
Язык : English
Default : Да
Forced : Нет

Аудио #1
Идентификатор : 2
Формат : AC-3
Формат/Информация : Audio Coding 3
Расширение режима : CM (complete main)
Параметр Endianness формата : Big
Идентификатор кодека : A_AC3
Продолжительность : 1 ч. 35 м.
Вид битрейта : Постоянный
Битрейт : 448 Кбит/сек
Каналы : 6 каналов
Расположение каналов : Front: L C R, Side: L R, LFE
Частота : 48,0 КГц
Битовая глубина : 16 бит
Метод сжатия : С потерями
Размер потока : 305 Мбайт (14%)
Заголовок : Dub
Язык : Russian
Default : Да
Forced : Нет

Аудио #2
Идентификатор : 3
Формат : AC-3
Формат/Информация : Audio Coding 3
Расширение режима : CM (complete main)
Параметр Endianness
36f3518fc0e3795f90e59bbafe64b65c191b83d9Напролом / Lockout [UNRATED] (Джеймс Мэтер, Стивен Ст. Леджер, Фантастика, боевик, триллер, 2012) [HDRip-AVC, Дубляж, Оригинал, Sub] Напролом / Lockout [UNRATED] (Джеймс Мэтер, Стивен Ст. Леджер, Фантастика, боевик, триллер, 2012) [HDRip-AVC, Дубляж, Оригинал, Sub] " />

Аплоадер: Админ, дата: 13-07-2012, 22:12, торрент скачан: 359 раз

Понравилась раздача? Посмотрите эти:
  • Никто не выжил / No One Lives (Рюхэй Китамура, Триллер, ужасы, 2012) [BDRip ...
  • Толстяк на ринге / Here Comes the Boom (Фрэнк Корачи, Боевик, комедия, 2012 ...
  • Напролом / Lockout [UNRATED] (Джеймс Мэтер, Стивен Ст. Леджер, Фантастика, ...
  • Напролом / Lockout [UNRATED] (Джеймс Мэтер, Стивен Ст. Леджер, Фантастика, ...
  • Голодные игры / The Hunger Games (Гэри Росс, Фантастика, боевик, приключени ...
  • Морской бой / Battleship (Питер Берг, фантастика, боевик, триллер, приключе ...
  • Папа-досвидос [Расширенная версия] / Thats My Boy [UNRATED] (Шон Андерс, ко ...
  • Вспомнить всё / Total Recall (Лен Уайзман, Фантастика, боевик, триллер, при ...
  • Помогите Стать Отцом / Not Suitable For Children (Питер Темплмен, Мелодрама ...
  • Напролом / Lockout (Джеймс Мэтер, Стивен Ст. Леджер, Фантастика, 2012) [BDR ...
  • Напролом / Lockout (Джеймс Мэтер, Стивен Ст. Леджер, Фантастика, 2012) [BDR ...
  • Напролом / Lockout [UNRATED] (Джеймс Мэтер, Стивен Ст. Леджер, Фантастика, ...
  • Напролом / Lockout [UNRATED] (Джеймс Мэтер, Стивен Ст. Леджер, Фантастика, ...
  • Напролом / Lockout [Unrated] (Джеймс Мэтер, Стивен Ст. Леджер, фантастика, ...
  • Напролом [Расширенная версия] / Lockout [Unrated Edition] (Джеймс Мэтер, Ст ...
  • Морской бой / Battleship (Питер Берг, Фантастика, Боевик, Триллер, 2012) [B ...
  • Напролом / Lockout [UNRATED] (Джеймс Мэтер, Стивен Ст. Леджер, Фантастика, ...
  • Напролом / Lockout [UNRATED] (Джеймс Мэтер, Стивен Ст. Леджер, Фантастика, ...
  • Напролом / Lockout [Unrated] (Джеймс Мэтер, Стивен Ст. Леджер, фантастика, ...
  • Напролом / Lockout [UNRATED] (Джеймс Мэтер, Стивен Ст. Леджер, Фантастика, ...
  • Напролом / Lockout [UNRATED] (Джеймс Мэтер, Стивен Ст. Леджер, Фантастика, ...
  • Напролом / Lockout (Джеймс Мэтер, Стивен Ст. Леджер, фантастика, боевик, тр ...
  • Напролом / Lockout (Джеймс Мэтер, Стивен Ст. Леджер, Фантастика, Боевик, Тр ...
  • Напролом / Lockout (Джеймс Мэтер, Стивен Ст. Леджер, Фантастика, Боевик, Тр ...
  • Напролом / Lockout (Джеймс Мэтер, Стивен Ст. Леджер, фантастика, боевик, тр ...
  • Информация
    Посетители, находящиеся в группе Гости, не могут оставлять комментарии к данной публикации.