вход на сайт

Имя пользователя :
Пароль :

Восстановление пароля Регистрация
Трон / Tron (Стивен Лисбергер / Steven Lisberger, фантастика, боевик, приключения, 1982) [BDRip - AVC, Дублированный + Профессиональный (многоголосый, закадровый) + Оригинал + SUB]
Рейтинг:
(голосов: 1)



[img]{THEME}/images/logopost.png[/img]



Трон / Tron
«The Electronic Gladiator»

Год выпуска: 1982
Страна: США
Производство: Lisberger/Kushner, Walt Disney Productions
Жанр: фантастика, боевик, приключения

Режиссёр: Стивен Лисбергер / Steven Lisberger
В ролях: Джефф Бриджес, Брюс Бокслейтнер, Дэвид Уорнер, Синди Морган, Барнард Хьюс, Дэн Шор, Питер Юрасик, Тони Стефано, Крейг Чади, Винс Дидрик мл.

Перевод: 1: Профессиональный (полное дублирование) (DUB)
2: Профессиональный (многоголосый, закадровый) (MVO)
3: Оригинал
Субтитры: русские, английские

Описание: Вам никогда не приходила в голову мысль попасть внутрь компьютерной игры и стать ее участником? До определенного момента Кевин Флинн тоже думал, что это возможно лишь в его воображении.

Но, оказавшись в секретной лаборатории, разрабатывающей компьютерные программы, ему предоставляется возможность увидеть электронный мир изнутри и сразиться в жестокой схватке с самим хозяином виртуальной вселенной.Дата премьеры (мир): 9 июля 1982
Релиз на DVD: 23 августа 2011, «Уолт Дисней Компани СНГ»
Качество: BDRip - AVC
Продолжительность: 01:35:47

Формат: MKV
Видео кодек: x264
Аудио кодек: AC3
Видео: 1156 x 524 (2.20:1), 23.976 fps, AVC, ~4 114 kbps avg, 0.276 bit/pixel
Аудио #1: [Russian] 48 kHz, AC3, 2 channels (Front: L R), ~192.00 kbps avg | DUB
Аудио #2: [Russian] 48 kHz, AC3, 6 channels (Front: L C R, Side: L R, LFE), ~448.00 kbps avg | MVO
Аудио #3: [English] 48 kHz, AC3, 6 channels (Front: L C R, Side: L R, LFE), ~448.00 kbps avg | Оригинал
MediaInfo ▼TextFormat : Matroska
File size : 3.48 GiB
Duration : 1h 35mn
Overall bit rate : 5 205 Kbps
Movie name : Tron (1982) BDRip
Encoded date : UTC 2011-04-09 09:13:13
Writing application : mkvmerge v4.4.0 (Die Wiederkehr) built on Oct 31 2010 21:52:48
Writing library : libebml v1.0.0 + libmatroska v1.0.0
Cover : Yes
Video
ID : 1
Format : AVC
Format/Info : Advanced Video Codec
Format profile : [email protected]
Format settings, CABAC : Yes
Format settings, ReFrames : 12 frames
Codec ID : V_MPEG4/ISO/AVC
Duration : 1h 35mn
Bit rate : 4 114 Kbps
Width : 1 156 pixels
Height : 524 pixels
Display aspect ratio : 2.2:1
Frame rate : 23.976 fps
Color space : YUV
Chroma subsampling : 4:2:0
Bit depth : 8 bits
Scan type : Progressive
Bits/(Pixel*Frame) : 0.276
Stream size : 2.69 GiB (77%)
Writing library : x264 core 114 r1924 08d04a4
Encoding settings : cabac=1 / ref=12 / deblock=1:-3:-2 / analyse=0x3:0x133 / me=umh / subme=10 / psy=1 / psy_rd=1.07:0.03 / mixed_ref=1 / me_range=32 / chroma_me=1 / trellis=2 / 8x8dct=1 / cqm=0 / deadzone=21,11 / fast_pskip=1 / chroma_qp_offset=-3 / threads=6 / sliced_threads=0 / nr=0 / decimate=1 / interlaced=0 / constrained_intra=0 / bframes=11 / b_pyramid=2 / b_adapt=2 / b_bias=0 / direct=1 / weightb=1 / open_gop=0 / weightp=2 / keyint=250 / keyint_min=23 / scenecut=40 / intra_refresh=0 / rc=crf / mbtree=0 / crf=19.3 / qcomp=0.60 / qpmin=0 / qpmax=69 / qpstep=4 / ip_ratio=1.40 / pb_ratio=1.20 / aq=1:0.65
Language : English
Matrix coefficients : BT.709-5, BT.1361, IEC 61966-2-4 709, SMPTE RP177
Audio #1
ID : 2
Format : AC-3
Format/Info : Audio Coding 3
Format profile : Dolby Digital
Mode extension : CM (complete main)
Codec ID : A_AC3
Duration : 1h 35mn
Bit rate mode : Constant
Bit rate : 192 Kbps
Channel(s) : 2 channels
Channel positions : Front: L R
Sampling rate : 48.0 KHz
Bit depth : 16 bits
Compression mode : Lossy
Stream size : 132 MiB (4%)
Title : Dub
Language : Russian
Audio #2
ID : 3
Format : AC-3
Format/Info : Audio Coding 3
Mode extension : CM (complete main)
Codec ID : A_AC3
Duration : 1h 35mn
Bit rate mode : Constant
Bit
2659ec5f191a134ca482e2b52f8fbb75603d582aТрон / Tron (Стивен Лисбергер / Steven Lisberger, фантастика, боевик, приключения, 1982) [BDRip - AVC, Дублированный + Профессиональный (многоголосый, закадровый) + Оригинал + SUB] Трон / Tron (Стивен Лисбергер / Steven Lisberger, фантастика, боевик, приключения, 1982) [BDRip - AVC, Дублированный + Профессиональный (многоголосый, закадровый) + Оригинал + SUB] " />

Аплоадер: Админ, дата: 29-06-2012, 20:32, торрент скачан: 359 раз

Понравилась раздача? Посмотрите эти:
  • [Дилогия] Трон / [Dilogy] Tron (Стивен Лисбергер, Джозеф Косински, фантасти ...
  • Погнали! / Getaway (Кортни Соломон, боевик, криминал, 2013) [BDRip 720p, Пр ...
  • Пастырь / Priest (Скотт Чарльз Стюарт, ужасы, фантастика, боевик, триллер, ...
  • Инопланетянин / E.T. the Extra-Terrestrial (Стивен Спилберг, Фантастика, фэ ...
  • Убить по расписанию / Ticking Clock (Эрни Барбараш, фантастика, боевик, три ...
  • Цельнометаллическая оболочка / Full Metal Jacket (Стэнли Кубрик, драма, вое ...
  • Мартовские иды / The Ides of March (Джордж Клуни / George Clooney, драма, 2 ...
  • Персонаж / Stranger Than Fiction (Марк Форстер, Комедия, драма, фантастика, ...
  • Водный мир / Waterworld (Кевин Рейнольдс, Кевин Костнер, фантастика, боевик ...
  • Вальгалла: Сага о викинге / Valhalla Rising (Николас Виндинг Рёфн, боевик, ...
  • Джон Картер / John Carter (Эндрю Стэнтон, Фантастика, 2012) [BDRip-AVC, Дуб ...
  • Поворот не туда 4 / Wrong Turn 4 (Деклан О’Брайэн, ужасы, боевик, детектив, ...
  • Меланхолия / Melancholia (Ларс фон Триер / Lars von Trier, фантастика, драм ...
  • Автостопом по галактике / The Hitchhikers Guide to the Galaxy (Гарт Дженнин ...
  • Робин Гуд [Режиссёрская версия] / Robin Hood [Directors Cut] (Ридли Скотт / ...
  • Апокалипсис сегодня / Apocalypse Now (Френсис Форд Коппола / Francis Ford C ...
  • [3D] Приключения Тинтина: Тайна Единорога / The Adventures of Tintin (Стиве ...
  • Трон / Tron (Стивен Лисбергер / Steven Lisberger, фантастика, киберпанк, тр ...
  • Чужие на районе / Attack the Block (Джо Корниш, фантастика, боевик, комедия ...
  • Похищенная / A Lonely Place to Die (Джулиан Джилби, триллер, криминал, прик ...
  • Викинги / Outlander (Ховард МакКейн, Фантастика, боевик, приключения, 2008) ...
  • Трон / Tron (Стивен Лисбергер, Фантастика, боевик, триллер, приключения 198 ...
  • [EN] Трон / Tron (Джефф Бриджес, фантастика, 1982 г.) [DVDRip, оригинал]
  • [3D] Трон: Наследие / Tron: Legacy (Джозеф Косински, фантастика, боевик, тр ...
  • Трон / Tron (Стивен Лисбергер, фантастика, боевик, триллер, приключения, 19 ...
  • Информация
    Посетители, находящиеся в группе Гости, не могут оставлять комментарии к данной публикации.