вход на сайт

Имя пользователя :
Пароль :

Восстановление пароля Регистрация
Автостопом по галактике / The Hitchhikers Guide to the Galaxy (Гарт Дженнингс, фантастика, комедия, приключения, 2005) [BDRip - AVC, DUB + DVO (Tycoon) + Org + SUB]
Рейтинг:
(голосов: 1)



[img]{THEME}/images/logopost.png[/img]



Автостопом по галактике / The Hitchhikers Guide to the Galaxy
«Здесь этому учат!»

Год выпуска: 2005
Страна: США , Великобритания
Производство: Everyman Pictures, Hammer & Tongs, Spyglass Entertainment, Touchstone Pictures
Жанр: фантастика, комедия, приключения

Режиссёр: Гарт Дженнингс / Garth Jennings
В ролях: Билл Бэйли, Мартин Фриман, Мос Деф, Сэм Рокуэлл, Зои Дешанель, Билл Найи, Уорвик Дэвис, Анна Чэнселлор, Алан Рикман, Хелен Миррен

Перевод: 1: Профессиональный (полное дублирование) (DUB)
2: Профессиональный (двухголосый, закадровый) (Tycoon)
3: Оригинал
Субтитры: русские, английские

Описание: В один прекрасный день над Землей нависли огромные звездолеты инопланетян, и людям объявили, что их родная планета подлежит сносу, а на ее месте будет проложено шикарное межзвездное шоссе. Н-да, не повезло человечеству. Кроме самого заурядного парня по имени Артур Дент, старый друг и собутыльник которого Форд Префект оказался… инопланетянином!Дата премьеры (мир): 20 апреля 2005
Дата премьеры (РФ): 9 июня 2005, «Каскад»
Релиз на DVD: 14 июня 2011, «Уолт Дисней Компани СНГ»
Качество: BDRip - AVC
Продолжительность: 01:48:46

Формат: MKV
Видео кодек: x264
Аудио кодек: AC3
Видео: 1104 x 460 (2.40:1), 23.976 fps, AVC, ~2 589 kbps avg, 0.207 bit/pixel
Аудио #1: [Russian] 48 kHz, AC3, 6 channels (Front: L C R, Side: L R, LFE), ~384.00 kbps avg | DUB
Аудио #2: [Russian] 48 kHz, AC3, 6 channels (Front: L C R, Side: L R, LFE), ~192.00 kbps avg | DVO (Tycoon)
Аудио #3: [English] 48 kHz, AC3, 6 channels (Front: L C R, Side: L R, LFE), ~448.00 kbps avg | Оригинал
MediaInfo ▼TextFormat : Matroska
File size : 2.94 GiB
Duration : 1h 48mn
Overall bit rate : 3 872 Kbps
Movie name : The Hitchhikers Guide to the Galaxy (2005) BDRip
Encoded date : UTC 2011-03-08 10:41:24
Writing application : mkvmerge v4.4.0 (Die Wiederkehr) built on Oct 31 2010 21:52:48
Writing library : libebml v1.0.0 + libmatroska v1.0.0
Cover : Yes
Video
ID : 1
Format : AVC
Format/Info : Advanced Video Codec
Format profile : [email protected]
Format settings, CABAC : Yes
Format settings, ReFrames : 12 frames
Codec ID : V_MPEG4/ISO/AVC
Duration : 1h 48mn
Bit rate : 2 589 Kbps
Width : 1 104 pixels
Height : 460 pixels
Display aspect ratio : 2.40:1
Frame rate : 23.976 fps
Color space : YUV
Chroma subsampling : 4:2:0
Bit depth : 8 bits
Scan type : Progressive
Bits/(Pixel*Frame) : 0.207
Stream size : 1.91 GiB (65%)
Writing library : x264 core 114 r1913 5fd3dce
Encoding settings : cabac=1 / ref=12 / deblock=1:-2:-2 / analyse=0x3:0x133 / me=umh / subme=10 / psy=1 / psy_rd=1.05:0.08 / mixed_ref=1 / me_range=32 / chroma_me=1 / trellis=2 / 8x8dct=1 / cqm=0 / deadzone=21,11 / fast_pskip=1 / chroma_qp_offset=-3 / threads=6 / sliced_threads=0 / nr=0 / decimate=1 / interlaced=0 / constrained_intra=0 / bframes=10 / b_pyramid=2 / b_adapt=2 / b_bias=0 / direct=1 / weightb=1 / open_gop=0 / weightp=2 / keyint=250 / keyint_min=23 / scenecut=40 / intra_refresh=0 / rc=crf / mbtree=0 / crf=20.6 / qcomp=0.70 / qpmin=0 / qpmax=69 / qpstep=4 / ip_ratio=1.40 / pb_ratio=1.20 / aq=1:0.90
Language : English
Matrix coefficients : BT.709-5, BT.1361, IEC 61966-2-4 709, SMPTE RP177
Audio #1
ID : 2
Format : AC-3
Format/Info : Audio Coding 3
Mode extension : CM (complete main)
Codec ID : A_AC3
Duration : 1h 48mn
Bit rate mode : Constant
Bit rate : 384 Kbps
Channel(s) : 6 channels
Channel positions : Front: L C R, Side: L R, LFE
Sampling rate : 48.0 KHz
Bit depth : 16 bits
Stream size : 299 MiB (10%)
Title : Dub
Language : Russian
Audio #2
ID : 3
Format : AC-3
Format/Info : Audio Coding 3
Mode extension : CM (complete main)
Codec ID : A_AC3
Durati
7ef6c47f45260325f7dc212cca840441ca60d337Автостопом по галактике / The Hitchhikers Guide to the Galaxy (Гарт Дженнингс, фантастика, комедия, приключения, 2005) [BDRip - AVC, DUB + DVO (Tycoon) + Org + SUB] Автостопом по галактике / The Hitchhikers Guide to the Galaxy (Гарт Дженнингс, фантастика, комедия, приключения, 2005) [BDRip - AVC, DUB + DVO (Tycoon) + Org + SUB] " />

Аплоадер: Админ, дата: 29-06-2012, 00:24, торрент скачан: 359 раз

Понравилась раздача? Посмотрите эти:
  • Снова ты / You Again (Энди Фикмен, Мелодрама, комедия, 2010) [BDRip-AVC, Пр ...
  • Убить по расписанию / Ticking Clock (Эрни Барбараш, фантастика, боевик, три ...
  • Путеводитель: Автостопом по галактике/ The Hitchhikers Guide to the Galaxy/ ...
  • Путеводитель: Автостопом по галактике / The Hitchhikers Guide to the Galaxy ...
  • Автостопом по галактике / The Hitchhikers Guide to the Galaxy (Гарт Дженнин ...
  • Цельнометаллическая оболочка / Full Metal Jacket (Стэнли Кубрик, драма, вое ...
  • Аноним / Anonymous (Роланд Эммерих, триллер, драма, 2011) [BDRip-AVC, Профе ...
  • Персонаж / Stranger Than Fiction (Марк Форстер, Комедия, драма, фантастика, ...
  • Путеводитель: Автостопом по галактике / The Hitchhikers Guide to the Galaxy ...
  • Больше, чем любовь / A Lot Like Love (Найджел Коул, драма, мелодрама, комед ...
  • Автостопом по галактике / The Hitchhikers Guide to the Galaxy (Гарт Дженнин ...
  • Человек-волк [Театральная версия] / The Wolfman [Theatrical cut] (Джо Джонс ...
  • Робин Гуд [Режиссёрская версия] / Robin Hood [Directors Cut] (Ридли Скотт / ...
  • Трон / Tron (Стивен Лисбергер / Steven Lisberger, фантастика, боевик, прикл ...
  • Апокалипсис сегодня / Apocalypse Now (Френсис Форд Коппола / Francis Ford C ...
  • Сутенер / Le mac (Паскаль Бюрдо / Pascal Bourdiaux, комедия, криминал, 2010 ...
  • Автостопом по галактике / The Hitchhikers Guide to the Galaxy (Гарт Дженнин ...
  • Автостопом по галактике / The Hitchhikers Guide to the Galaxy (Гарт Дженнин ...
  • Mylene Farmer / Du Temps [2011, Pop, HDTVRip]
  • Джон Картер / John Carter (Эндрю Стэнтон, Фантастика, 2012) [BDRip-AVC, Дуб ...
  • Информация
    Посетители, находящиеся в группе Гости, не могут оставлять комментарии к данной публикации.