вход на сайт

Имя пользователя :
Пароль :

Восстановление пароля Регистрация
Джон Картер / John Carter (Эндрю Стэнтон, Фантастика, 2012) [BDRip-AVC, Дублированный + Оригинал + Sub]
Рейтинг:
(голосов: 1)



[img]{THEME}/images/logopost.png[/img]



Джон Картер / John Carter
«В этом мире у каждого есть второй шанс»

Год выпуска: 2012
Страна: США
Производство: Walt Disney Pictures
Жанр: фантастика, фэнтези, боевик, приключения

Режиссёр: Эндрю Стэнтон
В ролях: Тейлор Китч, Линн Коллинз, Саманта Мортон, Уиллем Дефо, Томас Хейден Чёрч, Марк Стронг, Кирен Хайдз, Доминик Уэст, Джеймс Пьюрфой, Брайан Крэнстон

Перевод: Дублированный + Оригинал
Субтитры: Русские (форс. на марсианскую речь + полные), Английские |.srt|

Описание: Ветеран Гражданской войны в США Джон Картер против своей воли оказывается на Марсе, где попадает в плен к воинственным четырехметровым туземцам. Картеру предстоит не только спастись самому, но и спасти принцессу Дею Торис из Гелиума.Дата премьеры (мир): 22 февраля 2012
Дата премьеры (РФ): 8 марта 2012, «WDSSPR»
Релиз на DVD: 5 июня 2012, «Уолт Дисней Компани СНГ»
Релиз на Blu-Ray: 5 июня 2012, «Уолт Дисней Компани СНГ»
Качество: BDRip-AVC | исх. John Carter 2012 1080p Blu-Ray AVC DTS-HD MA 7.1-HDChina => Сэмпл
Продолжительность: 02:12:01

Релиз от:
Автор рипа: Vaippp

Формат: MKV
Видео кодек: AVC
Аудио кодек: AC3 Dolby Digital
Видео: 1056x440 (2,40:1), 23.976 fps, 2331 Kbps, 0.208 bit/pixel
Аудио: [Russian] 48 kHz, AC3 Dolby Digital, 6 ch, ~384.00 kbps avg | Дублированный
Аудио: [English] 48 kHz, AC3 Dolby Digital, 6 ch, ~384.00 kbps avg

MediaInfo ▼General
Unique ID : 248293427858684612902660437807019806849 (0xBACB93242D2DB9869E02F96E307F5081)
Complete name : /Torrents/home/borodach/data/Dzhon.Karter.2012.DUAL.BDRip-AVC.AC3.-HQ-ViDEO.mkv
Format : Matroska
Format version : Version 2
File size : 2.90 GiB
Duration : 2h 12mn
Overall bit rate : 3 147 Kbps
Movie name : John Carter (2012) - HQ-ViDEO
Encoded date : UTC 2012-05-25 03:17:51
Writing application : mkvmerge v5.5.0 (Healer) built on Apr 6 2012 21:43:24
Writing library : libebml v1.2.3 + libmatroska v1.3.0

Video
ID : 1
Format : AVC
Format/Info : Advanced Video Codec
Format profile : [email protected]
Format settings, CABAC : Yes
Format settings, ReFrames : 11 frames
Codec ID : V_MPEG4/ISO/AVC
Duration : 2h 12mn
Bit rate : 2 316 Kbps
Width : 1 056 pixels
Height : 440 pixels
Display aspect ratio : 2.40:1
Frame rate : 23.976 fps
Color space : YUV
Chroma subsampling : 4:2:0
Bit depth : 8 bits
Scan type : Progressive
Bits/(Pixel*Frame) : 0.208
Stream size : 2.14 GiB (74%)
Title : Vaippp
Writing library : x264 core 124 r2197 69a0443
Encoding settings : cabac=1 / ref=11 / deblock=1:-2:-1 / analyse=0x3:0x133 / me=umh / subme=10 / psy=1 / psy_rd=1.00:0.00 / mixed_ref=1 / me_range=32 / chroma_me=1 / trellis=2 / 8x8dct=1 / cqm=0 / deadzone=21,11 / fast_pskip=1 / chroma_qp_offset=-2 / threads=12 / sliced_threads=0 / nr=0 / decimate=1 / interlaced=0 / bluray_compat=0 / constrained_intra=0 / bframes=13 / b_pyramid=2 / b_adapt=2 / b_bias=0 / direct=1 / weightb=1 / open_gop=0 / weightp=2 / keyint=240 / keyint_min=22 / scenecut=40 / intra_refresh=0 / rc_lookahead=60 / rc=crf / mbtree=0 / crf=18.4 / qcomp=0.70 / qpmin=0 / qpmax=69 / qpstep=4 / vbv_maxrate=40000 / vbv_bufsize=30000 / crf_max=0.0 / nal_hrd=none / ip_ratio=1.40 / pb_ratio=1.30 / aq=1:0.90
Language : English
Default : Yes
Forced : No
Color primaries : BT.709-5, BT.1361, IEC 61966-2-4, SMPTE RP177
Transfer characteristics : BT.709-5, BT.1361
Matrix coefficients : BT.709-5, BT.1361, IEC 61966-2-4 709, SMPTE RP177

Audio #1
ID : 2
Format : AC-3
Format/Info : Audio Coding 3
Mode extension : CM (complete main)
Codec ID : A_AC3
Duration : 2h 12mn
Bit rate mode : Constant
Bit rate : 384 Kbps
Channel(s) : 6 channels
Channel positions : Front: L C R, Side: L R, LFE
Sampling rate : 48.0 KHz
Bit depth : 16 bits
Compression mode : Lossy
Stream size : 363 MiB (12%)
Title : DUB @ Blu-Ray CEE
Language : Russian
Default : Yes
Forced : Yes

Audio #2
ID : 3
Format : AC-3
Format/Info : Audio Coding 3
Mode extension : CM (complete main)
Codec ID : A_AC3
Duration : 2h 12mn
Bit rate mode : Constant
Bit r
d18228df4ef490042d996c0de433d6c58734de2eДжон Картер / John Carter (Эндрю Стэнтон, Фантастика, 2012) [BDRip-AVC, Дублированный + Оригинал + Sub] Джон Картер / John Carter (Эндрю Стэнтон, Фантастика, 2012) [BDRip-AVC, Дублированный + Оригинал + Sub] " />

Аплоадер: Админ, дата: 25-05-2012, 11:29, торрент скачан: 359 раз

Понравилась раздача? Посмотрите эти:
  • Джон Картер / John Carter (Эндрю Стэнтон, Фантастика, фэнтези, боевик, прик ...
  • Джон Картер / John Carter (Эндрю Стэнтон, Фантастика, 2012) [HDRip-AVC, Дуб ...
  • Джон Картер / John Carter (Эндрю Стэнтон, фантастика, 2012) [BDRip-AVC, Дуб ...
  • Джон Картер / John Carter (Эндрю Стэнтон, Фантастика, 2012) [BDRip-AVC, Дуб ...
  • Значит, война / This Means War (МакДжи, боевик, мелодрама, комедия, 2012) [ ...
  • Тренер Картер / Coach Carter (Томас Картер / Thomas Carter, драма, спорт, 2 ...
  • Проект X: Дорвались / Project X (Нима Нуризаде, комедия, 2012) [BDRip-AVC, ...
  • [3D] Джoн Кaртер в 3Д / Jоhn Cаrter 3D (Эндрю Стэнтон / Andrew Stanton) [20 ...
  • [3D] Джон Картер 3D / John Carter 3D (Эндрю Стэнтон, Фантастика, 2012) [BDR ...
  • [3D] Джон Картер 3D / John Carter 3D (Эндрю Стэнтон, Фантастика, 2012) [BDR ...
  • [3D] Джон Картер 3D / John Carter 3D (Эндрю Стэнтон, Фантастика, 2012) [BDR ...
  • Джон Картер / John Carter (Эндрю Стэнтон, Фантастика, 2012) [BDRip 1080p, Д ...
  • Джон Картер / John Carter (Эндрю Стэнтон, Фантастика, 2012) [BDRip 720p, Ду ...
  • Джон Картер / John Carter (Эндрю Стэнтон, Фантастика, фэнтези, боевик, прик ...
  • Джон Картер / John Carter (Эндрю Стэнтон, фантастика, 2012) [DVD9, Професси ...
  • Джон Картер / John Carter (Эндрю Стэнтон, фантастика, фэнтези, боевик, прик ...
  • Джон Картер / John Carter (Эндрю Стэнтон, фантастика, 2012) [BDRip, Дубляж] ...
  • Джон Картер / John Carter (Эндрю Стэнтон, фантастика, 2012) [HDRip, Дубляж] ...
  • Джон Картер / John Carter (Эндрю Стэнтон, Фантастика, 2012) [BDRip-AVC, Дуб ...
  • [3D] Джон Картер 3D / John Carter 3D (Эндрю Стэнтон, Фантастика, 2012) [Blu ...
  • Джон Картер / John Carter (Эндрю Стэнтон, фантастика, фэнтези, боевик, прик ...
  • Джон Картер / John Carter (Эндрю Стэнтон / Andrew Stanton / фантастика, фэн ...
  • Джон Картер / John Carter (Эндрю Стэнтон, фантастика, 2012) [BDRip, Авторск ...
  • Джон Картер / John Carter (Эндрю Стэнтон, Фантастика, фэнтези, боевик, прик ...
  • Джон Картер / John Carter (Эндрю Стэнтон, Фантастика, Фэнтези, Боевик, Прик ...
  • Информация
    Посетители, находящиеся в группе Гости, не могут оставлять комментарии к данной публикации.