вход на сайт

Имя пользователя :
Пароль :

Восстановление пароля Регистрация
Параграф 78: Фильм второй (Михаил Хлебородов, фантастика, боевик, триллер, 2007) [DVDRip-AVC, Не требуется]
Рейтинг:
(голосов: 1)



[img]{THEME}/images/logopost.png[/img]



Параграф 78: Фильм второй
«Жребий брошен...»

Год выпуска: 2007
Страна: Россия
Производство: MB Productions, Star Magic, Stimul M Production
Жанр: фантастика, боевик, триллер

Режиссёр: Михаил Хлебородов
В ролях: Гоша Куценко, Владимир Вдовиченков, Анастасия Сланевская, Азиз Бейшеналиев, Григорий Сиятвинда, Станислав Дужников, Анатолий Белый, Юсуп Бахшиев

Перевод: Не требуется
Субтитры: Отсутствуют

Описание: Выводы Доктора неутешительны: вирус мутировал, старый антидот не действует, и всем участникам операции придется навсегда остаться на базе. В свои права вступает «Параграф 78 Экспедиционного Устава» — «Если причина поражения неустранима, а возвращение представляет потенциальную угрозу, группа подлежит самоликвидации».
Всем им довольно скоро придется погибнуть, превратившись перед этим в обезумевших кровожадных мутантов. Вирус должен окончательно сломить их всего через несколько часов. Но даже в этой ситуации никуда не деться сложным внутренним противоречиям между однополчанами, И в первую очередь — давней истории очень непростых взаимоотношений между Гудвином, Скифом и Лисой…Дата премьеры (мир): 6 апреля 2007
Дата премьеры (РФ): 29 марта 2007, «Централ Партнершип»
Качество: DVDRip-AVC
Продолжительность: 01:29:53


Формат: MKV
Видео кодек: h.264
Аудио кодек: AC3
Видео: 720x436 @ 1024x436 (2.35:1), 25.000 fps, ~1870 Kbps, 0.238 bit/pixel
Аудио: 48 kHz, 6 channel (Front: L C R, Side: L R, LFE), 448.00 kbps avg
MediaInfo ▼TextFormat : Matroska
Format version : Version 2
File size : 1.46 GiB
Duration : 1h 29mn
Overall bit rate : 2 318 Kbps
Encoded date : UTC 2012-01-23 09:11:38
Writing application : mkvmerge v5.0.1 (Es ist Sommer) built on Nov 6 2011 16:23:40
Writing library : libebml v1.2.2 + libmatroska v1.3.0

Video
ID : 1
Format : AVC
Format/Info : Advanced Video Codec
Format profile : [email protected]
Format settings, CABAC : Yes
Format settings, ReFrames : 9 frames
Codec ID : V_MPEG4/ISO/AVC
Duration : 1h 29mn
Bit rate : 1 870 Kbps
Width : 720 pixels
Height : 436 pixels
Display aspect ratio : 2.35:1
Frame rate : 25.000 fps
Color space : YUV
Chroma subsampling : 4:2:0
Bit depth : 8 bits
Scan type : Progressive
Bits/(Pixel*Frame) : 0.238
Stream size : 1.15 GiB (79%)
Writing library : x264 core 120 r2146 bcd41db
Encoding settings : cabac=1 / ref=9 / deblock=1:-3:-3 / analyse=0x3:0x133 / me=umh / subme=11 / psy=1 / psy_rd=1.00:0.20 / mixed_ref=1 / me_range=32 / chroma_me=1 / trellis=2 / 8x8dct=1 / cqm=0 / deadzone=21,11 / fast_pskip=1 / chroma_qp_offset=-3 / threads=6 / sliced_threads=0 / nr=0 / decimate=1 / interlaced=0 / bluray_compat=0 / constrained_intra=0 / bframes=6 / b_pyramid=2 / b_adapt=2 / b_bias=0 / direct=3 / weightb=1 / open_gop=0 / weightp=2 / keyint=250 / keyint_min=25 / scenecut=40 / intra_refresh=0 / rc_lookahead=60 / rc=2pass / mbtree=1 / bitrate=1870 / ratetol=1.0 / qcomp=0.60 / qpmin=0 / qpmax=69 / qpstep=4 / cplxblur=20.0 / qblur=0.5 / ip_ratio=1.40 / aq=1:1.00

Audio
ID : 2
Format : AC-3
Format/Info : Audio Coding 3
Mode extension : CM (complete main)
Codec ID : A_AC3
Duration : 1h 29mn
Bit rate mode : Constant
Bit rate : 448 Kbps
Channel(s) : 6 channels
Channel positions : Front: L C R, Side: L R, LFE
Sampling rate : 48.0 KHz
Bit depth : 16 bits
Compression mode : Lossy
Stream size : 288 MiB (19%)





64e99ee2773116adb1cd9572a80dd5013ab8c0ebПараграф 78: Фильм второй (Михаил Хлебородов, фантастика, боевик, триллер, 2007) [DVDRip-AVC, Не требуется] Параграф 78: Фильм второй (Михаил Хлебородов, фантастика, боевик, триллер, 2007) [DVDRip-AVC, Не требуется] " />

Аплоадер: Админ, дата: 10-04-2012, 17:32, торрент скачан: 359 раз

Понравилась раздача? Посмотрите эти:
  • FLO / NRG [2012, Pop, Dance, MasterRip]
  • Пастырь / Priest (Скотт Чарльз Стюарт, ужасы, фантастика, боевик, триллер, ...
  • Zомби каникулы (Кирилл Кемниц, Ужасы, триллер, комедия, 2013) [BDRip 720p, ...
  • Груз 200 (Алексей Балабанов, триллер, драма, 2007) [BDRip-AVC, Не требуется ...
  • Хроника / Chronicle (Джошуа Транк, фантастика, боевик, триллер, драма, 2012 ...
  • Суррогаты / Surrogates (Джонатан Мостоу, фантастика, боевик, триллер, 2009) ...
  • 28 недель спустя / 28 Weeks Later (Хуан Карлос Фреснадильо, ужасы, фантасти ...
  • Убить по расписанию / Ticking Clock (Эрни Барбараш, фантастика, боевик, три ...
  • Голодный кролик атакует / Seeking Justice (Роджер Дональдсон, боевик, 2011) ...
  • Голодный кролик атакует / Seeking Justice (Роджер Дональдсон / Roger Donald ...
  • Запрещенная реальность (Константин Максимов, фантастика, боевик, 2009) [BDR ...
  • Параграф 78: Фильм первый (Михаил Хлебородов, фантастика, боевик, триллер, ...
  • Исходный код / Source Code (Дункан Джонс, Фантастика, боевик, триллер, драм ...
  • Смешарики. Начало (Денис Чернов, мультфильм, комедия, приключения, семейный ...
  • Чемпионат Европы 2012 / 1/4 финала / Чехия - Португалия / Спорт 1 HD [Футбо ...
  • Chelsea - Season Review 2011-12 / Челси - Обзор Сезона 2011-12 [ Футбол, 20 ...
  • Mylene Farmer / Du Temps [2011, Pop, HDTVRip]
  • Mylene Farmer / Bleu Noir [2011, Pop, HDTVRip]
  • Параграф 78 Фильм первый (Михаил Хлебородов, Фантастика, боевик, триллер, 2 ...
  • Параграф 78 Фильм второй (Михаил Хлебородов, Фантастика, боевик, триллер, 2 ...
  • Информация
    Посетители, находящиеся в группе Гости, не могут оставлять комментарии к данной публикации.