вход на сайт

Имя пользователя :
Пароль :

Восстановление пароля Регистрация
Идеальный убийца / Swamp Shark (Грифф Ферст, фантастика, 2011) [HDRip, Профессиональный (многоголосый, закадровый)]
Рейтинг:
(голосов: 1)



[img]{THEME}/images/logopost.png[/img]



Идеальный убийца / Swamp Shark

Год выпуска: 2011
Страна: США
Выпущено:Bullet Films
Жанр:фантастика

Режиссёр: Грифф Ферст
В главных ролях:Кристи Суонсон, Д.Б. Суини, Роберт Дави, Джефф Чейз, Джейсон Рогель, Ричард Танн, Софи Синиз, Вэйд Боггс, Наташа Итзель, Дилан Рэмси

Перевод: Профессиональный (многоголосый, закадровый)
Субтитры:нету

О фильме: Открыт купальный сезон на великолепных озерах Атчафалайя. Перед фестивалем здесь собирается много молодых людей и семей с детьми. И в ночь перед праздником чудовища вышли из болотистой части озер. Ничего не подозревающих людей ждет настоящий ужас, ведь им предстоит встреча с существом, подобного которому никто никогда не видел!



IMDB: рейтинг 3.9/10 (553 votes)
КиноПоиск: рейтинг 2.9/10 (195 голосов)


MediaInfo ▼Text
General
Complete name : /Torrents/home/alekseim/data/Swamp.Shark.2011.P.HDRip.1400MB.avi
Format : AVI
Format/Info : Audio Video Interleave
File size : 1.37 GiB
Duration : 1h 28mn
Overall bit rate : 2 205 Kbps

Video
ID : 0
Format : MPEG-4 Visual
Format profile : Advanced [email protected]
Format settings, BVOP : 4
Format settings, QPel : No
Format settings, GMC : No warppoints
Format settings, Matrix : Default (H.263)
Codec ID : XVID
Codec ID/Hint : XviD
Duration : 1h 28mn
Bit rate : 1 750 Kbps
Width : 720 pixels
Height : 400 pixels
Display aspect ratio : 16:9
Frame rate : 23.976 fps
Color space : YUV
Chroma subsampling : 4:2:0
Bit depth : 8 bits
Scan type : Progressive
Compression mode : Lossy
Bits/(Pixel*Frame) : 0.253
Stream size : 1.09 GiB (79%)
Writing library : XviD 1.2.1 (UTC 2008-12-04)

Audio
ID : 1
Format : AC-3
Format/Info : Audio Coding 3
Mode extension : CM (complete main)
Codec ID : 2000
Duration : 1h 28mn
Bit rate mode : Constant
Bit rate : 448 Kbps
Channel(s) : 6 channels
Channel positions : Front: L C R, Side: L R, LFE
Sampling rate : 48.0 KHz
Bit depth : 16 bits
Compression mode : Lossy
Stream size : 285 MiB (20%)
Alignment : Aligned on interleaves
Interleave, duration : 64 ms (1.53 video frames)
Interleave, preload duration : 192 ms
Title : shark

Качество: HDRip
Продолжительность: 01:25:15

Формат: AVI
Видео кодек: XviD
Аудио кодек: AC3
Видео: 720x400 (16:9), AVC, 23.976 fps, 1 750 kbps, 0.25 bit/pixel
Аудио #1: Russian: 48.0 KHz, Audio Coding 3, 6 channels (Front: L C R, Side: L R, LFE), 448 Kbps|Профессиональный (многоголосый, закадровый)|



Наши рипы / Набор в РГ / Стол заказов РГ / Стол заказов по РИПам




c28e42610e052241c5defa2ab139df9327b7b228Идеальный убийца / Swamp Shark (Грифф Ферст, фантастика, 2011) [HDRip, Профессиональный (многоголосый, закадровый)] Идеальный убийца / Swamp Shark (Грифф Ферст, фантастика, 2011) [HDRip, Профессиональный (многоголосый, закадровый)] " />

Аплоадер: Админ, дата: 24-03-2012, 19:30, торрент скачан: 359 раз

Понравилась раздача? Посмотрите эти:
  • Погнали! / Getaway (Кортни Соломон, Боевик, Криминал, 2013) [HDRip, Професс ...
  • Орудие смерти / A-i-deul... (Ли Гю Ман, Триллер, криминал, 2011) [DVDRip, П ...
  • Верное дельце / Une pure affaire (Александр Коффре, Боевик, Комедия, Кримин ...
  • Мои герои / Mes heros (Эрик Беснард, комедия, 2012) [HDRip, Профессиональны ...
  • Ночь тамплиера / Night of the Templar (Пол Сэмпсон, Ужасы, фантастика, боев ...
  • 23:59 / 23:59 (Гилберт Чан, Ужасы, 2011) [HDRip, Любительский (одноголосый ...
  • Безопасность не гарантируется / Safety Not Guaranteed (Колин Треворроу, фан ...
  • В хлам / Smashed (Джеймс Понсольдт, Драма, комедия, 2012) [HDRip, Профессио ...
  • Воин / The One Warrior (Том Стаут, фантастика, 2011) [DVDRip,Оригинал,Профе ...
  • Плохая актриса / Bad Actress (Роберт Ли Кинг, комедия, 2011) [DVDRip, Профе ...
  • Джефф, живущий дома / Jeff, Who Lives at Home (Джей Дюпласс, Марк Дюпласс, ...
  • Джефф, живущий дома / Jeff, Who Lives at Home (Джей Дюпласс, Марк Дюпласс, ...
  • Супер циклон / Super Cyclone (Лиз Адамс / Liz Adams, боевик, 2012) [HDRip, ...
  • Захват / Carjacked (Джон Бонито, триллер, 2011)[BDRip, Профессиональный (мн ...
  • Призрак в школе / Haunted High (Джеффри Скотт Ландо, ужасы, фантастика, 201 ...
  • Битва в пустыне / The Objective (Дэниэл Мирик, ужасы, фантастика, триллер, ...
  • Извлечение / Extracted (Нир Панири, фантастика, драма, 2012) [HDRip, Профес ...
  • Буря в Арктике / Arctic Blast (Брайан Тренчард-Смит, фантастика, триллер, 2 ...
  • Последний отпуск / Last Holiday (Уэйн Ван, Драма, комедия, приключения, 200 ...
  • Замёрзший мир / 2012: Ice Age (Трэвис Форт, фантастика, боевик, 2011) [HDRi ...
  • Супершторм в Сиэтле / Seattle Superstorm (Джейсон Бурк, фантастика, боевик ...
  • Девушки в опасности / Damsels in Distress (Уит Стиллман, драма, мелодрама, ...
  • Глаз шторма / The Eye of the Storm (Фред Скеписи, Драма, 2011) [HDRip, Проф ...
  • Искажение / Skew (Сейв Челенз, ужасы, триллер, 2011) [HDRip, Профессиональн ...
  • Паучий удар / Arachnoquake (Грифф Ферст, фантастика,2012) [HDRip, Профессио ...
  • Информация
    Посетители, находящиеся в группе Гости, не могут оставлять комментарии к данной публикации.