вход на сайт

Имя пользователя :
Пароль :

Восстановление пароля Регистрация
Водный мир / Waterworld (Кевин Рейнольдс, Кевин Костнер, фантастика, боевик, приключения, 1995) [BDRip-AVC, Профессиональный (многоголосый, закадровый) + Оригинал + субтитры]
Рейтинг:
(голосов: 1)



[img]{THEME}/images/logopost.png[/img]



Водный мир / Waterworld
«Beyond the horizon lies the secret to a new beginning.»

Год выпуска: 1995 г.
Страна: США
Производство: Davis Entertainment, Universal Pictures
Жанр: Фантастика, боевик, приключения

Режиссёр: Кевин Рейнольдс, Кевин Костнер
В ролях: Кевин Рейнольдс, Кевин Костнер
В ролях: Кевин Костнер, Деннис Хоппер, Джинн Трипплхорн, Тина Мажорино, Майкл Джитер, Джек Блэк, Ким Коутс, Чайм Джирафи, Рик Авилес, Р.Д. Колл

Перевод: Профессиональный (многоголосый, закадровый) (Киномания) + Оригинал
Субтитры: Русские, Русские (Гоблин), английские

Описание:
В далеком будущем полярные снега растаяли, покрыв всю Землю водой. Авторы погружают нас в фантастический мир немногочисленных людей, живущих на воде, где самым дорогим являются пресная вода, земля, еда, сигареты и т. п.

«Курильщики» убивают, грабят, обращают в рабство — используют двигатели внутреннего сгорания. Все остальные пытаются выжить, кто как может, а Кевин Костнер плавает сам по себе на своей фантастической лодке, но объединяет их всех одно — все они ищут остров.

В одной из колоний живут очень красивая женщина и девочка с татуировкой на спине. А татуировка эта — часть карты, на которой и указан этот остров. Естественно, за ней и охотятся «курильщики»…





Качество: BDRip-AVC
Продолжительность: 02:15:11 час.

Формат: MKV
Видео кодек: H.264
Аудио кодек: AC3, DTS
Видео: 960x520 (16:9), 23.976 fps, Advanced Video Codec ([email protected]) ~4 057 kbps avg, 0.339 bit/pixel
Аудио #1: 48 kHz, AC3, 3/2 (L,C,R,l,r) + LFE ch, ~384.00 kbps avg
Аудио #2: 48 kHz, AC3, 3/2 (L,C,R,l,r) + LFE ch, ~384.00 kbps avg
Media Info ▼TextFormat : Matroska
File size : 4.55 GiB
Duration : 2h 15mn
Overall bit rate : 4 816 Kbps
Encoded date : UTC 2011-12-14 17:09:13
Writing application : mkvmerge v5.0.1 (Es ist Sommer) built on Oct 24 2011 19:45:06
Writing library : libebml v1.2.2 + libmatroska v1.3.0

Video
ID : 1
Format : AVC
Format/Info : Advanced Video Codec
Format profile : [email protected]
Format settings, CABAC : Yes
Format settings, ReFrames : 9 frames
Codec ID : V_MPEG4/ISO/AVC
Duration : 2h 15mn
Bit rate : 4 057 Kbps
Width : 960 pixels
Height : 520 pixels
Display aspect ratio : 16:9
Frame rate : 23.976 fps
Color space : YUV
Chroma subsampling : 4:2:0
Bit depth : 8 bits
Scan type : Progressive
Bits/(Pixel*Frame) : 0.339
Stream size : 3.73 GiB (82%)
Writing library : x264 core 119 r2106 07efeb4
Encoding settings : cabac=1 / ref=9 / deblock=1:-3:-2 / analyse=0x3:0x113 / me=umh / subme=10 / psy=1 / psy_rd=1.05:0.15 / mixed_ref=1 / me_range=32 / chroma_me=1 / trellis=2 / 8x8dct=1 / cqm=0 / deadzone=21,11 / fast_pskip=1 / chroma_qp_offset=-3 / threads=3 / sliced_threads=0 / nr=0 / decimate=1 / interlaced=0 / bluray_compat=0 / constrained_intra=0 / bframes=9 / b_pyramid=2 / b_adapt=2 / b_bias=0 / direct=3 / weightb=1 / open_gop=0 / weightp=2 / keyint=250 / keyint_min=23 / scenecut=40 / intra_refresh=0 / rc_lookahead=60 / rc=2pass / mbtree=0 / bitrate=4057 / ratetol=1.0 / qcomp=0.70 / qpmin=0 / qpmax=69 / qpstep=4 / cplxblur=20.0 / qblur=0.5 / vbv_maxrate=50000 / vbv_bufsize=62500 / nal_hrd=none / ip_ratio=1.40 / pb_ratio=1.30 / aq=2:0.90
Language : English

Audio #1
ID : 2
Format : AC-3
Format/Info : Audio Coding 3
Mode extension : CM (complete main)
Codec ID : A_AC3
Duration : 2h 15mn
Bit rate mode : Constant
Bit rate : 384 Kbps
Channel(s) : 6 channels
Channel positions : Front: L C R, Side: L R, LFE
Sampling rate : 48.0 KHz
Bit depth : 16 bits
Compression mode : Lossy
Stream size : 371 MiB (8%)
Title : MVO Киномания
Language : Russian

Audio #2
ID : 3
Format : AC-3
Format/Info : Audio Coding 3
Mode extension : CM (complete main)
Codec ID : A_AC3
Duration : 2h 15mn
Bit rate mode : Constant
Bit rate : 384 Kbps
Channel(s) : 6 channels
Channel positions : Front: L C R, Side: L R, LFE
Sampling rate : 48.0 KHz
Bit depth : 16 bits
Compression mode : Lossy
Stream size : 371 MiB (8%)
Language : English

Text #1
ID : 4
Format : UTF-8
Codec ID : S_TEXT/UTF8
Codec
233f2be7a22ed02530473d218cf27abdc609584eВодный мир / Waterworld (Кевин Рейнольдс, Кевин Костнер, фантастика, боевик, приключения, 1995) [BDRip-AVC, Профессиональный (многоголосый, закадровый) + Оригинал + субтитры] Водный мир / Waterworld (Кевин Рейнольдс, Кевин Костнер, фантастика, боевик, приключения, 1995) [BDRip-AVC, Профессиональный (многоголосый, закадровый) + Оригинал + субтитры] " />

Аплоадер: Админ, дата: 19-03-2012, 22:49, торрент скачан: 359 раз

Понравилась раздача? Посмотрите эти:
  • Водный мир / Waterworld (Кевин Рейнольдс, Кевин Костнер, фантастика, боевик ...
  • Погнали! / Getaway (Кортни Соломон, боевик, криминал, 2013) [BDRip 720p, Пр ...
  • Пастырь / Priest (Скотт Чарльз Стюарт, ужасы, фантастика, боевик, триллер, ...
  • Водный мир / Waterworld (Кевин Рейнольдс, фантастика, боевик, приключения, ...
  • Водный мир / Waterworld (Кевин Рейнольдс, фантастика, боевик, приключения, ...
  • Отдел 13 / Diamant 13 (Гайллз Бэхат, Боевик, триллер, криминал, 2009) [BDRi ...
  • Убить по расписанию / Ticking Clock (Эрни Барбараш, фантастика, боевик, три ...
  • Водный Мир (расширенная версия) / Waterworld (Кевин Рейнольдс, Кевин Костне ...
  • Водный мир (Расширенная версия) / Waterworld (Extended Edition) (Кевин Рейн ...
  • Открытый простор / Open Range (Кевин Костнер, драма, мелодрама, вестерн, 20 ...
  • Цельнометаллическая оболочка / Full Metal Jacket (Стэнли Кубрик, драма, вое ...
  • Персонаж / Stranger Than Fiction (Марк Форстер, Комедия, драма, фантастика, ...
  • Трон / Tron (Стивен Лисбергер / Steven Lisberger, фантастика, боевик, прикл ...
  • Водный мир / Waterworld (Кевин Рейнольдс, Кевин Костнер, Фантастика, боевик ...
  • Трансформеры 3: Тёмная сторона Луны / Transformers: Dark of the Moon (Майкл ...
  • Дети шпионов 4D / Spy Kids: All the Time in the World in 4D (Роберт Родриге ...
  • Один дома 2: Затерянный в Нью-Йорке / Home Alone 2: Lost in New York (Крис ...
  • Чаббчаббы спасают Рождество / The Chubbchubbs Save Xmas (Коуди Камерон, мул ...
  • Похищенная / A Lonely Place to Die (Джулиан Джилби, триллер, криминал, прик ...
  • Семь футов / Seven Below (Кевин Каррауэй, Ужасы, триллер, 2012) [BDRip 720p ...
  • Mylene Farmer / Du Temps [2011, Pop, HDTVRip]
  • Mylene Farmer / Bleu Noir [2011, Pop, HDTVRip]
  • Водный мир / Waterworld (Кевин Рейнолдс, фантастика, боевик, приключения, 1 ...
  • Водный мир / Waterworld (Кевин Рейнольдс | Кевин Костнер, Фантастика, боеви ...
  • Водный мир / Waterworld (Кевин Рейнольдс, фантастика, 1995) [HDRip, Авторск ...
  • Информация
    Посетители, находящиеся в группе Гости, не могут оставлять комментарии к данной публикации.