вход на сайт

Имя пользователя :
Пароль :

Восстановление пароля Регистрация
Запрещенная реальность (Константин Максимов, фантастика, боевик, 2009) [BDRip-AVC, Оригинал]
Рейтинг:
(голосов: 1)



[img]{THEME}/images/logopost.png[/img]



Запрещенная реальность

Год выпуска: 2009
Страна: Россия
Производство: PS TVC Studio
Жанр: фантастика, боевик

Режиссёр: Константин Максимов
В ролях: Игорь Петренко, Любовь Толкалина, Александр Балуев, Владимир Вдовиченков, Лев Прыгунов, Андрей Чубченко, Алексей Дмитриев, Ольга Ковалева, Владимир Панчик, Валерий Гурьев

Перевод: Оригинал
Субтитры: Отсутствуют

Описание: Он живет в одном мире, а во сне видит другой. Он встречает одну женщину, но узнает в ней другую. Он — Матвей Соболев, бывший агент военной контрразведки, но ему предстоит стать Воином Круга. Потому что равновесие между мирами нарушено. И Конкере уже нашел себе носителя…



Качество: BDRip-AVC источник Blu-ray disc 1080p
Продолжительность: 01:33:16 час.

Формат: MKV
Видео кодек: AVC
Аудио кодек: AC3
Видео: 1152x490 (2.35:1), 23.976 fps, AVC, 2 966 kbps avg, 0.219 bit/pixel
Аудио: 48 kHz, AC3, 6 ch, ~384.00 kbps avg

Премьера (мир): 8 октября 2009
Премьера (РФ): 8 октября 2009, «Централ Партнершип»

MediaInfo ▼General
Unique ID : 235713725120548088121114837347151976971 (0xB154CFE92552F463B0A4370EBD351A0B)
Complete name : F:FILMS___ - R - ___Запрещенная реальность BDRip.mkv
Format : Matroska
Format version : Version 2
File size : 2.18 GiB
Duration : 1h 33mn
Overall bit rate : 3 351 Kbps
Encoded date : UTC 2012-03-16 19:18:40
Writing application : mkvmerge v3.3.0 (Language) строится на Apr 12 2010 10:07:49
Writing library : libebml v0.8.0 + libmatroska v0.9.0
Video
ID : 1
Format : AVC
Format/Info : Advanced Video Codec
Format profile : [email protected]
Format settings, CABAC : Yes
Format settings, ReFrames : 14 frames
Codec ID : V_MPEG4/ISO/AVC
Duration : 1h 33mn
Bit rate : 2 966 Kbps
Width : 1 152 pixels
Height : 490 pixels
Display aspect ratio : 2.35:1
Frame rate : 23.976 fps
Color space : YUV
Chroma subsampling : 4:2:0
Bit depth : 8 bits
Scan type : Progressive
Bits/(Pixel*Frame) : 0.219
Stream size : 1.89 GiB (87%)
Title : AVC [email protected] fps 2.35:1 ~ 2966 kBit/s 2-pass High 4.1 0.219
Writing library : x264 core 120 r2120bm 0c7dab9
Encoding settings : cabac=1 / ref=14 / deblock=1:-2:-2 / analyse=0x3:0x133 / me=umh / subme=10 / psy=1 / psy_rd=1.00:0.15 / mixed_ref=1 / me_range=32 / chroma_me=1 / trellis=2 / 8x8dct=1 / cqm=0 / deadzone=21,11 / fast_pskip=0 / chroma_qp_offset=-3 / threads=6 / sliced_threads=0 / nr=0 / decimate=0 / interlaced=0 / bluray_compat=0 / constrained_intra=0 / bframes=10 / b_pyramid=2 / b_adapt=2 / b_bias=0 / direct=3 / weightb=1 / open_gop=0 / weightp=2 / keyint=250 / keyint_min=23 / scenecut=40 / intra_refresh=0 / rc=2pass / mbtree=0 / bitrate=2966 / ratetol=1.0 / qcomp=0.90 / qpmin=0 / qpmax=69 / qpstep=4 / cplxblur=20.0 / qblur=0.5 / ip_ratio=1.40 / pb_ratio=1.60 / aq=2:0.85
Language : Russian
Audio
ID : 2
Format : AC-3
Format/Info : Audio Coding 3
Mode extension : CM (complete main)
Codec ID : A_AC3
Duration : 1h 33mn
Bit rate mode : Constant
Bit rate : 384 Kbps
Channel(s) : 6 channels
Channel positions : Front: L C R, Side: L R, LFE
Sampling rate : 48.0 KHz
Bit depth : 16 bits
Compression mode : Lossy
Stream size : 256 MiB (11%)
Title : AC3 384 kBit/s 48 kHz 5.1 DD
Language : Russian"Знаете ли вы, что..." ▼Картина является экранизацией фантастического романа Василия Головачева «СМЕРШ-2».




2ec0019f6ca4c3cd4896dd08f6dfe66bb22f5eefЗапрещенная реальность (Константин Максимов, фантастика, боевик, 2009) [BDRip-AVC, Оригинал] Запрещенная реальность (Константин Максимов, фантастика, боевик, 2009) [BDRip-AVC, Оригинал] " />

Аплоадер: Админ, дата: 18-03-2012, 02:38, торрент скачан: 359 раз

Понравилась раздача? Посмотрите эти:
  • Армагеддец / The Worlds End (Эдгар Райт, фантастика, боевик, комедия, 2013) ...
  • FLO / NRG [2012, Pop, Dance, MasterRip]
  • Пастырь / Priest (Скотт Чарльз Стюарт, ужасы, фантастика, боевик, триллер, ...
  • Четвертый вид / The Fourth Kind (Олатунде Осунсанми, ужасы, фантастика, 200 ...
  • Хроника / Chronicle (Джошуа Транк, фантастика, боевик, триллер, драма, 2012 ...
  • UFC - Best Of 2012 Year In Review[MMA,2013, BDRip 540p]
  • Отдел 13 / Diamant 13 (Гайллз Бэхат, Боевик, триллер, криминал, 2009) [BDRi ...
  • Суррогаты / Surrogates (Джонатан Мостоу, фантастика, боевик, триллер, 2009) ...
  • Убить по расписанию / Ticking Clock (Эрни Барбараш, фантастика, боевик, три ...
  • Поворот не туда 4 / Wrong Turn 4 (Деклан О’Брайэн, ужасы, боевик, детектив, ...
  • Репортаж из преисподней / [REC] 2 (Жауме Балагуэро, Пако Пласа, ужасы, трил ...
  • Видение / Dreamscape (Джозеф Рубен, ужасы, фантастика, триллер, приключения ...
  • Закон доблести / Act of Valor (Майк МакКой, Скотт Во, боевик, триллер, прик ...
  • Запрещённая реальность (Константин Максимов, Фантастика/Боевик, 2009) [DVD5 ...
  • Исходный код / Source Code (Дункан Джонс, фантастика, боевик, триллер, 2011 ...
  • Собачье сердце (Владимир Бортко, фантастика, драма, комедия, 1988) [BDRip 7 ...
  • Дети шпионов 4D / Spy Kids: All the Time in the World in 4D (Роберт Родриге ...
  • Запрещенная реальность (Константин Максимов, фантастика, боевик, 2009) [BDR ...
  • Морской бой / Battleship (Питер Берг, Фантастика, боевик, триллер, приключе ...
  • Люди в черном 3 / Men in Black III (Барри Зонненфельд, Фантастика, боевик, ...
  • Mylene Farmer / Du Temps [2011, Pop, HDTVRip]
  • Mylene Farmer / Bleu Noir [2011, Pop, HDTVRip]
  • Запрещенная реальность (Константин Максимов, фантастика, боевик, 2009) [DVD ...
  • Запрещенная реальность (Константин Максимов, Фантастика, боевик, 2009) [DVD ...
  • Запрещенная реальность (Константин Максимов, фантастика, боевик, 2009) [BDR ...
  • Информация
    Посетители, находящиеся в группе Гости, не могут оставлять комментарии к данной публикации.