вход на сайт

Имя пользователя :
Пароль :

Восстановление пароля Регистрация
Воин / The One Warrior (Том Стаут, фантастика, 2011) [DVDRip,Оригинал,Профессиональный (многоголосый)]
Рейтинг:
(голосов: 1)



[img]{THEME}/images/logopost.png[/img]



Воин / The One Warrior

Год выпуска: 2011
Страна: США
Производство: Paramount Picture
Жанр: Фантастика, приключения

Режиссёр: Том Стаут
В ролях: Джеймс Руссо (Claudius), Доминик Китинг (Dragons Voice / рассказчик), Джейсон Дэвид Фрэнк (One Warrior), Tara Kleinpeter (Slave Girl #3), Дэвид Мартинез (Soldier #1), Брент Генри (Brutus), Эдвард Св. Пэ (Shoukata), А. Вэйд Миллер (Cave Dweller #2), Кион Фьюкуа (Guard #1 / Death), Сэм Шелтон (Giant), Дженнифер Пейдж Кларк (Hethera and the Amazons), Дрю Уильямс (Demon Slayer)

Перевод: Оригинал, Профессиональный (многоголосый) [лицензия]
Субтитры: Нет

Описание: У Воина лишь одна цель - низвергнуть темного властелина Шукату, воцарившегося в мире, где еще живы древние предания. Но на пути героя ждет множество препятствий - драконы, проклятый Дамоклов меч, шесть самураев, воинственные амазонки и т. д. С каждым испытанием Воин становится все сильнее, а окружающий его мир все больше напоминает виртуальную реальность. А может быть, его путешествие и было компьютерной игрой?..

IMDB:3.0 рейтинг
КиноПоиск:2.3 рейтинг


Качество: DVDRip
Продолжительность: 01:26:30 час.

Формат: AVI
Видео кодек: XviD
Аудио кодек: AC3
Видео: XviD; 720x400 (16:9); 1744 Kbps; 25 fps; 0,242 bpp
Аудио: Russian / English: 48 Hz; AC3; 256 Kbps; CBR; 6 ch
"Media Info" ▼ General
Complete name : /mnt/dat0/torrents/tadmin/Воин 2011 DVDRip MVO R5.avi
Format : AVI
Format/Info : Audio Video Interleave
File size : 1.37 GiB
Duration : 1h 26mn
Overall bit rate : 2 271 Kbps
Writing application : VirtualDubMod 1.5.10.2 (build 2540/release)
Writing library : VirtualDubMod build 2540/release

Video
ID : 0
Format : MPEG-4 Visual
Format profile : Advanced [email protected]
Format settings, BVOP : 2
Format settings, QPel : Yes
Format settings, GMC : 3 warppoints
Format settings, Matrix : Default (H.263)
Codec ID : XVID
Codec ID/Hint : XviD
Duration : 1h 26mn
Bit rate : 1 745 Kbps
Width : 720 pixels
Height : 400 pixels
Display aspect ratio : 16:9
Frame rate : 25.000 fps
Color space : YUV
Chroma subsampling : 4:2:0
Bit depth : 8 bits
Scan type : Progressive
Compression mode : Lossy
Bits/(Pixel*Frame) : 0.242
Stream size : 1.05 GiB (77%)
Writing library : XviD 1.2.1 (UTC 2008-12-04)

Audio #1
ID : 1
Format : AC-3
Format/Info : Audio Coding 3
Mode extension : CM (complete main)
Codec ID : 2000
Duration : 1h 26mn
Bit rate mode : Constant
Bit rate : 256 Kbps
Channel(s) : 6 channels
Channel positions : Front: L C R, Side: L R, LFE
Sampling rate : 48.0 KHz
Bit depth : 16 bits
Compression mode : Lossy
Stream size : 158 MiB (11%)
Alignment : Split accross interleaves
Interleave, duration : 40 ms (1.00 video frame)
Interleave, preload duration : 500 ms

Audio #2
ID : 2
Format : AC-3
Format/Info : Audio Coding 3
Mode extension : CM (complete main)
Codec ID : 2000
Duration : 1h 26mn
Bit rate mode : Constant
Bit rate : 256 Kbps
Channel(s) : 6 channels
Channel positions : Front: L C R, Side: L R, LFE
Sampling rate : 48.0 KHz
Bit depth : 16 bits
Compression mode : Lossy
Stream size : 158 MiB (11%)
Alignment : Aligned on interleaves
Interleave, duration : 40 ms (1.00 video frame)
Interleave, preload duration : 512 ms


0ce999ffef9c7ff7ce598545ca617810a11fedddВоин / The One Warrior (Том Стаут, фантастика, 2011) [DVDRip,Оригинал,Профессиональный (многоголосый)] Воин / The One Warrior (Том Стаут, фантастика, 2011) [DVDRip,Оригинал,Профессиональный (многоголосый)] " />

Аплоадер: Админ, дата: 27-02-2012, 03:32, торрент скачан: 359 раз

Понравилась раздача? Посмотрите эти:
  • Похищенный сын: История Тиффани Рубин / Taken from Me: The Tiffany Rubin St ...
  • Орудие смерти / A-i-deul... (Ли Гю Ман, Триллер, криминал, 2011) [DVDRip, П ...
  • Верное дельце / Une pure affaire (Александр Коффре, Боевик, Комедия, Кримин ...
  • Мои герои / Mes heros (Эрик Беснард, комедия, 2012) [HDRip, Профессиональны ...
  • Посылка / The Package (Джесси Джонсон, боевик, 2013) [HDRip, Профессиональн ...
  • Мэрайа Мунди и шкатулка Мидаса / The Adventurer: The Curse of the Midas Box ...
  • Мужество / Wymyk (Грег Зглински, драма, 2011) [DVDRip, Любительский (одного ...
  • Слабые проблески / Rushlights (Энтони Стац, Триллер, Мелодрама, Криминал, 2 ...
  • Ночь тамплиера / Night of the Templar (Пол Сэмпсон, Ужасы, фантастика, боев ...
  • Звук моего голоса / Sound of My Voice (Зал Батманглидж, триллер, драма, 201 ...
  • Слепой поворот / Blind Turn (Роберт Орр, Триллер, драма, детектив, 2012) [W ...
  • 23:59 / 23:59 (Гилберт Чан, Ужасы, 2011) [HDRip, Любительский (одноголосый ...
  • Псы войны / The Dogs of War (Джон Ирвин, боевик, драма, приключения, военны ...
  • Тюремщик / Screwed (Рег Тревисс / Reg Traviss, Драма, 2011) [DVDRip , Люби ...
  • Плохая актриса / Bad Actress (Роберт Ли Кинг, комедия, 2011) [DVDRip, Профе ...
  • Идеальный убийца / Swamp Shark (Грифф Ферст, фантастика, 2011) [HDRip, Проф ...
  • Джефф, живущий дома / Jeff, Who Lives at Home (Джей Дюпласс, Марк Дюпласс, ...
  • Супер циклон / Super Cyclone (Лиз Адамс / Liz Adams, боевик, 2012) [HDRip, ...
  • Захват / Carjacked (Джон Бонито, триллер, 2011)[BDRip, Профессиональный (мн ...
  • Влюбленные (Валерий Бебко, Комедия, 2011) [DVDRip, Оригинал]
  • Супершторм в Сиэтле / Seattle Superstorm (Джейсон Бурк, фантастика, боевик ...
  • Инкубус / Inkubus (Гленн Чиано, Ужасы, 2011) [DVDRip, Профессиональный (мно ...
  • Воин Севера / Jadesoturi (Анти-Юсси Аннила, Фэнтези, Драма, Приключения, 20 ...
  • Девушки в опасности / Damsels in Distress (Уит Стиллман, драма, мелодрама, ...
  • Глаз шторма / The Eye of the Storm (Фред Скеписи, Драма, 2011) [HDRip, Проф ...
  • Информация
    Посетители, находящиеся в группе Гости, не могут оставлять комментарии к данной публикации.