вход на сайт

Имя пользователя :
Пароль :

Восстановление пароля Регистрация
Ковбои против пришельцев / Cowboys & Aliens [Расширенная версия](Джон Фавро, фантастика, боевик, триллер, вестерн, 2011) [BDRip-AVC, Дублированный + Любительский (одноголосый закадровый) + Оригинал ]
Рейтинг:
(голосов: 1)



[img]{THEME}/images/logopost.png[/img]



Ковбои против пришельцев / Cowboys & Aliens [Расширенная версия]
«First contact. Last stand.»

Год выпуска: 2011
Страна: США Индия
Производство: Universal Pictures, Touchstone Pictures, Paramount Pictures
Жанр: фантастика, боевик, триллер, вестерн

Режиссёр: Джон Фавро
В ролях: Дэниэл Крэйг, Харрисон Форд, Оливия Уайлд, Сэм Рокуэлл, Адам Бич, Пол Дано, Ноа Рингер, Эбигейл Спенсер, Бак Тейлор, Мэттью Тейлор

Перевод: Дублированный + Любительский (одноголосый закадровый) [Zamez][на расширенные места] + Оригинал
Субтитры: Русские, английские

Описание: 1873, Абсолюшен, штат Аризона. В эту глухую американскую провинцию прибывает потерявший память незнакомец. Единственный намек на его прошлое — это странные кандалы на одном из его запястий. Странник быстро узнает, что жители городка не рады незнакомцам, да и вообще они выходят на улицы лишь по приказу полковника Долархайда, правящего в этой местности железной рукой.

Вскоре странное поведение жителей объясняется. Периодически с неба обрушиваются ужасающие создания, которые забирают все, что им заблагорассудится и держат город в паническом страхе. Главный герой, постепенно вспоминающий о том, что с ним произошло, становится единственной надеждой города на спасение.


Дата премьеры (мир): 29 июля 2011
Дата премьеры (РФ): 11 августа 2011, «Централ Партнершип»
Качество: BDRip-AVC
Продолжительность: 02:15:13

Формат: MKV
Видео кодек: x264
Аудио кодек: AC3 Dolby Digital
Видео: 1280x528 (2.40:1), 23.976 fps, AVC, ~3 098 kbps, 0.191 bits/pixel
Аудио 1: 48 kHz, AC3 Dolby Digital, 3/2 (L,C,R,l,r) + LFE ch, ~448 kbps - Дублированный
Аудио 2: 48 kHz, AC3 Dolby Digital, 3/2 (L,C,R,l,r) + LFE ch, ~448 kbps - Любительский (одноголосый закадровый) [Zamez][на расширенные места]
Аудио 3: 48 kHz, AC3 Dolby Digital, 3/2 (L,C,R,l,r) + LFE ch, ~448 kbps - Оригинал

MediaInfo ▼TextCowboys.&.Aliens.2011.EXTENDED.BRRip-AVC.mkv
Format : Matroska
File size : 4.28 GiB
Duration : 2h 15mn
Overall bit rate : 4 532 Kbps
Movie name : -=R.G.Bee-Media=-
Encoded date : UTC 2012-02-21 03:55:54
Writing application : mkvmerge v2.9.8 (Cest le bon) built on Aug 13 2009 12:49:06
Writing library : libebml v0.7.7 + libmatroska v0.8.1
Video
ID : 1
Format : AVC
Format/Info : Advanced Video Codec
Format profile : [email protected]
Format settings, CABAC : Yes
Format settings, ReFrames : 8 frames
Muxing mode : Container [email protected]
Codec ID : V_MPEG4/ISO/AVC
Duration : 2h 15mn
Bit rate : 3 098 Kbps
Nominal bit rate : 3 186 Kbps
Width : 1 280 pixels
Height : 528 pixels
Display aspect ratio : 2.40:1
Frame rate : 23.976 fps
Resolution : 24 bits
Colorimetry : 4:2:0
Scan type : Progressive
Bits/(Pixel*Frame) : 0.191
Stream size : 2.92 GiB (68%)
Title : Cowboys.&.Aliens.2011.EXTENDED.BRRip-AVC
Writing library : x264 core 119 r2106 07efeb4
Encoding settings : cabac=1 / ref=8 / deblock=1:-1:-1 / analyse=0x3:0x133 / me=umh / subme=9 / psy=1 / psy_rd=1.00:0.10 / mixed_ref=1 / me_range=16 / chroma_me=1 / trellis=2 / 8x8dct=1 / cqm=0 / deadzone=21,11 / fast_pskip=0 / chroma_qp_offset=-3 / threads=6 / sliced_threads=0 / nr=0 / decimate=1 / interlaced=0 / bluray_compat=0 / constrained_intra=0 / bframes=3 / b_pyramid=2 / b_adapt=2 / b_bias=0 / direct=3 / weightb=1 / open_gop=0 / weightp=2 / keyint=250 / keyint_min=23 / scenecut=40 / intra_refresh=0 / rc_lookahead=50 / rc=2pass / mbtree=1 / bitrate=3186 / ratetol=1.0 / qcomp=0.60 / qpmin=0 / qpmax=69 / qpstep=4 / cplxblur=20.0 / qblur=0.5 / ip_ratio=1.40 / aq=1:1.00
Language : English
Audio #1
ID : 2
Format : AC-3
Format/Info : Audio Coding 3
Codec ID : A_AC3
Duration : 2h 15mn
Bit rate mode : Constant
Bit rate : 448 Kbps
Channel(s) : 6 channels
Channel positions : Front: L C R, Surround: L R, LFE
Sampling rate : 48.0 KHz
Stream size : 433 MiB (10%)
Title : 48 kHz, AC3, 6 ch, 448 kbps - Dub + вставки Zamez
Language : Russian
Audio #2
ID : 3
Format : AC-3
Format/Info : Audio Coding 3
Codec ID : A_AC3
Duration : 2h 15mn
Bit rate mode : Const
d111a04c83ff918d7e3ebf33e3b4104cc873228aКовбои против пришельцев / Cowboys & Aliens [Расширенная версия](Джон Фавро, фантастика, боевик, триллер, вестерн, 2011) [BDRip-AVC, Дублированный + Любительский (одноголосый закадровый) + Оригинал ] Ковбои против пришельцев / Cowboys & Aliens [Расширенная версия](Джон Фавро, фантастика, боевик, триллер, вестерн, 2011) [BDRip-AVC, Дублированный + Любительский (одноголосый закадровый) + Оригинал ] " />

Аплоадер: Админ, дата: 21-02-2012, 16:05, торрент скачан: 359 раз

Понравилась раздача? Посмотрите эти:
  • Честь дракона / Tom yum goong (Прачья Пинкаю, боевик, триллер, драма, крим ...
  • Ковбои против пришельцев / Cowboys & Aliens (Джон Фавро, фантастика, боевик ...
  • Супер 8 / Super 8 (Джей Джей Абрамс , фантастика , триллер , детектив ,2011 ...
  • Ковбои против пришельцев / Cowboys & Aliens(Джон Фавро, фантастика, боевик, ...
  • Ковбои против пришельцев / Cowboys & Aliens (Джон Фавро, фантастика, боевик ...
  • Ковбои против пришельцев / Cowboys & Aliens [Театральная версия](Джон Фавро ...
  • Ковбои против пришельцев / Cowboys & Aliens (Джон Фавро, Фантастика, 2011) ...
  • Джона Хекс / Jonah Hex (Джимми Хейуорд, боевик, триллер, драма, вестерн, 20 ...
  • Чужие против Хищника: Реквием [Расширенная версия] / AVPR: Aliens vs. Preda ...
  • Репортаж из преисподней / [REC] 2 (Жауме Балагуэро, Пако Пласа, ужасы, трил ...
  • Пришелец / Impostor (Гэри Фледер, фантастика, боевик, триллер, драма, 2001) ...
  • Повторяющие / Repeaters (Карл Бессай, фантастика, боевик, триллер, драма, к ...
  • Морской бой / Battleship (Питер Берг, фантастика, боевик, триллер, приключе ...
  • Идеальный Голос / Pitch Perfect (Джейсон Мур, Комедия, музыка, 2012) [BDRip ...
  • Ковбои против пришельцев / Cowboys & Aliens (Джон Фавро, фантастика, боевик ...
  • Ковбои против пришельцев / Cowboys & Aliens (Джон Фавро, Фантастика, 2011) ...
  • Ковбои против пришельцев / Cowboys & Aliens(Джон Фавро, фантастика, боевик, ...
  • Чужие на районе / Attack the Block (Джо Корниш, фантастика, боевик, комедия ...
  • Пираньи 3DD / Piranha 3DD (Джон Гулажер, ужасы, триллер, комедия, 2012) [BD ...
  • Ковбои против пришельцев / Cowboys & Aliens (Джон Фавро, Фантастика, Боевик ...
  • Ковбои против пришельцев / Cowboys & Aliens(Джон Фавро, фантастика, боевик, ...
  • Ковбои против пришельцев / Cowboys & Aliens (Джон Фавро, фантастика, боевик ...
  • Ковбои против пришельцев / Cowboys & Aliens (Джон Фавро, фантастика, боевик ...
  • Ковбои против пришельцев / Cowboys & Aliens (Джон Фавро, фантастика, боевик ...
  • Ковбои против пришельцев [Расширенная версия] / Cowboys & Aliens [Extended ...
  • Информация
    Посетители, находящиеся в группе Гости, не могут оставлять комментарии к данной публикации.