вход на сайт

Имя пользователя :
Пароль :

Восстановление пароля Регистрация
Геймер / Gamer (Марк Невелдайн, Брайан Тейлор, фантастика, боевик, триллер, 2009) [HDRip-AVC, Профессиональный (полное дублирование)]
Рейтинг:
(голосов: 1)



[img]{THEME}/images/logopost.png[/img]



Геймер / Gamer
Слоган: «Кто играет тобой?»

Год выпуска: 2009
Страна: США
Производство: Lionsgate
Жанр: фантастика, боевик, триллер

Режиссёр: Марк Невелдайн, Брайан Тейлор
В ролях: Джерард Батлер, Элисон Ломан, Майло Вентимилья, Майкл С. Холл, Джон Легуизамо, Логан Лерман, Терри Крюс, Кит Дэвид, Эмбер Валлетта, Эфрен Рамирез

Перевод: Профессиональный (полное дублирование)
Субтитры: нет

Описание: Действие фильма происходит в недалёком утопическом будущем, где высочайшее развитие нанотехнологий позволило технологическому гению Кену Кастлу соединить видеоигру с реалити-шоу и смоделировать ультрафункциональную, мультиплеерную игру «Убийцы», которая стала средой обитания местных преступников.

Джон Тиллман, приговоренный к пожизненному заключению за преступление, которого не совершал, должен принять участие в Игре, чтобы получить свободу. Для одного богатого молодого игрока Джон Тиллман это — Кэйбл, всего лишь сим, управляемый персонаж игры. Благодаря своим боевым способностям и физической силе, Кэйбл становится национальным героем и занимает первые позиции в игре.

Каждую неделю миллионы людей во всём мире в режиме онлайн следят за ним и сотней других смертников, которые участвуют в битвах игры. По мнению группы мятежников, которая противостоит Кастлу, его игра — это высокотехнологичное рабство, а он является тем критическим элементом, который необходимо уничтожить. Кэйбл/Тиллман оказался между двумя мощными противоборствующими силами, которые не заинтересованы в том, чтобы он выжил. С каждым шагом, за которым наблюдают миллионы, Джон Тилман сражается, чтобы получить свободу, восстановить свою личность и низвергнуть систему, которая его заключила в тюрьму.



Rip by chopper887

Качество: HDRip-AVC [рип с BDRip 720p]
Продолжительность: 01:34:47

Формат: MKV
Видео кодек: H.264
Аудио кодек: AC3
Видео: 1024х560 , 23.976 fps , 1772 Kbps, 0.129bpp
Аудио: AC3, 6ch,384 kbps,48.0 kHz

премьера (мир): 3 сентября 2009, ...
премьера (РФ): 9 сентября 2009, «West»
релиз на DVD: 2 марта 2010, «West Video»
релиз на Blu-Ray: 3 марта 2010, «West Video»
MediaInfo ▼Format : Matroska
File size : 1.46 GiB
Duration : 1h 34mn
Overall bit rate : 2 200 Kbps
Encoded date : UTC 2010-03-02 18:42:58
Writing application : mkvmerge v3.0.0 (Hang up your Hang-Ups) built on Dec 12 2009 15:20:35
Writing library : libebml v0.7.9 + libmatroska v0.8.1

Video
ID : 1
Format : AVC
Format/Info : Advanced Video Codec
Format profile : [email protected]
Format settings, CABAC : Yes
Format settings, ReFrames : 11 frames
Muxing mode : Container [email protected]
Codec ID : V_MPEG4/ISO/AVC
Duration : 1h 34mn
Bit rate : 1 772 Kbps
Nominal bit rate : 1 815 Kbps
Width : 1 024 pixels
Height : 560 pixels
Display aspect ratio : 16:9
Frame rate : 23.976 fps
Resolution : 8 bits
Colorimetry : 4:2:0
Scan type : Progressive
Bits/(Pixel*Frame) : 0.129
Stream size : 1.17 GiB (80%)
Writing library : x264 core 75 r1259M dd026f2
Encoding settings : cabac=1 / ref=11 / deblock=1:-2:-1 / analyse=0x3:0x113 / me=umh / subme=9 / psy=1 / psy_rd=1.0:0.0 / mixed_ref=1 / me_range=24 / chroma_me=1 / trellis=2 / 8x8dct=1 / cqm=0 / deadzone=21,11 / chroma_qp_offset=-4 / threads=3 / nr=0 / decimate=1 / mbaff=0 / bframes=12 / b_pyramid=0 / b_adapt=2 / b_bias=0 / direct=1 / wpredb=1 / keyint=250 / keyint_min=25 / scenecut=40 / rc_lookahead=30 / rc=2pass / mbtree=1 / bitrate=1815 / ratetol=1.0 / qcomp=0.60 / qpmin=10 / qpmax=51 / qpstep=4 / cplxblur=20.0 / qblur=0.5 / ip_ratio=1.40 / aq=1:1.20 / pulldown=0 / nal_hrd=0

Audio
ID : 2
Format : AC-3
Format/Info : Audio Coding 3
Codec ID : A_AC3
Duration : 1h 34mn
Bit rate mode : Constant
Bit rate : 384 Kbps
Channel(s) : 6 channels
Channel positions : Front: L C R, Surround: L R, LFE
Sampling rate : 48.0 KHz
Stream size : 260 MiB (17%)

Наши рипы / Набор в РГ/Стол заказов РГ / Стол
cade4f1ac7c210d62b35b5aafef087ab4581c74bГеймер / Gamer (Марк Невелдайн, Брайан Тейлор, фантастика, боевик, триллер, 2009) [HDRip-AVC, Профессиональный (полное дублирование)] Геймер / Gamer (Марк Невелдайн, Брайан Тейлор, фантастика, боевик, триллер, 2009) [HDRip-AVC, Профессиональный (полное дублирование)] " />

Аплоадер: Админ, дата: 20-01-2012, 21:38, торрент скачан: 359 раз

Понравилась раздача? Посмотрите эти:
  • Геймер / Gamer (Марк Невелдайн, Брайан Тейлор, фантастика, боевик, триллер, ...
  • [3D] Геймер 3D / Gamer 3D (Марк Невелдайн, Брайан Тейлор, Фантастика, боеви ...
  • [Дилогия] Адреналин / Crank (Марк Невелдайн, Брайан Тейлор, боевик, триллер ...
  • [3D] Геймер / Gamer (Марк Невелдайн, Брайан Тейлор, Фантастика, боевик, три ...
  • [3D] Геймер / Gamer (Марк Невелдайн, Брайан Тейлор,Фантастика, боевик, трил ...
  • [3D] Геймер / Gamer (Марк Невелдайн, Брайан Тейлор, Фантастика, Боевик, Три ...
  • [3D] Геймер / Gamer (Марк Невелдайн, Брайан Тейлор, Фантастика, Боевик, Три ...
  • Геймер / Gamer (Марк Невелдайн, Брайан Тейлор, Фантастика, боевик, триллер, ...
  • Геймер / Gamer (Марк Невелдайн, Брайан Тейлор, Фантастика, боевик, триллер, ...
  • Дитя человеческое / Children of Men (Альфонсо Куарон, фантастика, триллер, ...
  • 500 дней лета / (500) Days of Summer (Марк Уэбб / Marc Webb, мелодрама, ком ...
  • Четыре Рождества / Four Christmases (Сет Гордон / Seth Gordon, драма, мелод ...
  • Команда «А» / The A-Team (Джо Карнахан, боевик, триллер, комедия, приключен ...
  • Геймер / Gamer (Марк Невелдайн, Брайан Тейлор, фантастика, боевик, триллер, ...
  • Неуловимый Люк / Lucky Luke (Джеймс Хат, Вестерн, 2009) [HDRip-AVC, Професс ...
  • [3D] Призрачный гонщик 2 / Ghost Rider: Spirit of Vengeance (Марк Невелдайн ...
  • [3D] Призрачный гонщик 2 / Ghost Rider: Spirit of Vengeance (Марк Невелдайн ...
  • Бросок кобры / G.I. Joe: The Rise of Cobra (Стивен Соммерс, фантастика, бое ...
  • Аватар / Avatar (Джеймс Кэмерон / James Cameron, Фантастика, боевик, трилле ...
  • Mylene Farmer / Du Temps [2011, Pop, HDTVRip]
  • Геймер / Gamer (Джерард Батлер, Фантастика, боевик, триллер, 2009) [HDRip, ...
  • Геймер / Gamer (Марк Невелдайн, Брайан Тейлор, Фантастика, боевик, триллер, ...
  • Геймер / Gamer (Марк Невелдайн, Брайан Тейлор, фантастика, боевик, триллер, ...
  • Геймер / Gamer (Марк Невелдайн, Брайан Тейлор, боевик, фантастика, 2009) [H ...
  • Геймер / Gamer (Джерард Батлер, Фантастика, боевик, триллер, 2009) [320х170 ...
  • Информация
    Посетители, находящиеся в группе Гости, не могут оставлять комментарии к данной публикации.