вход на сайт

Имя пользователя :
Пароль :

Восстановление пароля Регистрация
Время / In Time (Эндрю Никкол, фантастика, триллер, криминал, 2011) [HDRip-AVC, Дублированный + Оригинал]
Рейтинг:
(голосов: 1)



[img]{THEME}/images/logopost.png[/img]



Время / In Time
Cлоган: «Живи вечно или умри, пытаясь»

Год выпуска: 2011
Страна: США
Производство: New Regency Pictures
Жанр: Фантастика, триллер, криминал

Режиссёр: Эндрю Никкол
В ролях: Джастин Тимберлэйк, Аманда Сайфред, Алекс Петтифер, Киллиан Мёрфи, Оливия Уайлд, Шайло Оствальд, Джонни Галэки, Колин МакГерк, Уилл Харрис, Майкл Уильям Фриман

Перевод: Дублированный + Оригинал
Субтитры: Отсутствуют

Описание: Добро пожаловать в мир, где время стало единственной и самой твердой валютой, где люди генетически запрограммированы так, что в 25 лет перестают стареть. Правда, последующие годы стоят денег. И вот богатые становятся практически бессмертными, а бедные, как всегда, обречены сражаться за жизнь. Уилл, бунтарь из гетто, несправедливо обвинен в убийстве с целью грабежа времени и вынужден, захватив заложницу, пуститься в бега. Так, ежеминутно рискуя жизнью, эти двое становятся грозным оружием в борьбе с системой. Но вот вопрос: кто кого? А может быть, в дело вмешается третья сила?..



Качество: HDRip-AVC
Продолжительность: 01:49:16

Формат: MKV
Видео кодек: x264
Аудио кодек: AC3
Видео: 1024 x 436 (2.349), 23,976 fps,~1696 kbps avg, 0.158 bit/pixel
Аудио1: 48 kHz, AC3 Dolby Digital, 3/2 (L,C,R,l,r) + LFE ch, ~384.00 kbps avgRUS
Аудио2: 48 kHz, AC3 Dolby Digital, 3/2 (L,C,R,l,r) + LFE ch, ~384.00 kbps avgENG

Media Info ▼Общее
Полное имя : F:In.Time.HDRip-AVC.2011.mkv
Формат : Matroska
Версия формата : Version 2
Размер файла : 1,59 Гбайт
Продолжительность : 1 ч. 49 м.
Общий поток : 2081 Кбит/сек
Дата кодирования : UTC 2012-01-19 13:14:57
Программа кодирования : mkvmerge v5.0.1 (Es ist Sommer) built on Oct 9 2011 11:55:43
Библиотека кодирования : libebml v1.2.2 + libmatroska v1.3.0

Видео
Идентификатор : 1
Формат : AVC
Формат/Информация : Advanced Video Codec
Профиль формата : [email protected]
Параметр CABAC формата : Да
Параметр ReFrames формата : 10 кадров
Идентификатор кодека : V_MPEG4/ISO/AVC
Продолжительность : 1 ч. 49 м.
Битрейт : 1696 Кбит/сек
Ширина : 1024 пикселя
Высота : 436 пикселей
Соотношение сторон : 2,35:1
Частота кадров : 23,976 кадра/сек
Цветовое пространство : YUV
Субдискретизация насыщенности : 4:2:0
Битовая глубина : 8 бит
Тип развёртки : Прогрессивная
Бит/(Пиксели*Кадры) : 0.158
Размер потока : 1,26 Гбайт (80%)
Библиотека кодирования : x264 core 118 r2085 8a62835
Настройки программы : cabac=1 / ref=10 / deblock=1:-2:-1 / analyse=0x3:0x133 / me=umh / subme=10 / psy=1 / psy_rd=1.00:0.00 / mixed_ref=1 / me_range=32 / chroma_me=1 / trellis=2 / 8x8dct=1 / cqm=0 / deadzone=21,11 / fast_pskip=0 / chroma_qp_offset=-2 / threads=12 / sliced_threads=0 / nr=0 / decimate=1 / interlaced=0 / bluray_compat=0 / constrained_intra=0 / bframes=9 / b_pyramid=2 / b_adapt=2 / b_bias=0 / direct=3 / weightb=1 / open_gop=0 / weightp=2 / keyint=250 / keyint_min=23 / scenecut=40 / intra_refresh=0 / rc=2pass / mbtree=0 / bitrate=1696 / ratetol=1.0 / qcomp=0.65 / qpmin=0 / qpmax=69 / qpstep=4 / cplxblur=20.0 / qblur=0.5 / ip_ratio=1.40 / pb_ratio=1.30 / aq=1:1.00
Язык : English
Default : Да
Forced : Нет

Аудио
Идентификатор : 2
Формат : AC-3
Формат/Информация : Audio Coding 3
Расширение режима : CM (complete main)
Идентификатор кодека : A_AC3
Продолжительность : 1 ч. 49 м.
Вид битрейта : Постоянный
Битрейт : 384 Кбит/сек
Каналы : 6 каналов
Расположение каналов : Front: L C R, Side: L R, LFE
Частота : 48,0 КГц
Битовая глубина : 16 бит
Метод сжатия : С потерями
Размер потока : 300 Мбайт (18%)
Заголовок : DUB
Язык : Russian
Default : Да
Forced : Нет

премьера (мир): 30 сентября 2011
премьера (РФ): 27 октября 2011, «Двадцатый Век Фокс СНГ»
релиз на Blu-Ray: 8 декабря 2011, «Двадцатый Век Фокс СНГ»


Наши рипы / Набор в РГ/Стол заказов РГ / Стол заказов по РИПам


df5be4bd525b9d2c7be648c87cdbbe4f3a85887cВремя / In Time (Эндрю Никкол, фантастика, триллер, криминал, 2011) [HDRip-AVC, Дублированный + Оригинал] Время / In Time (Эндрю Никкол, фантастика, триллер, криминал, 2011) [HDRip-AVC, Дублированный + Оригинал] " />

Аплоадер: Админ, дата: 19-01-2012, 21:15, торрент скачан: 359 раз

Понравилась раздача? Посмотрите эти:
  • Бойфренд из будущего / About Time (Ричард Кёртис, Фантастика, драма, комеди ...
  • Время / In Time (Эндрю Никкол, Фантастика, триллер, драма, мелодрама, крими ...
  • Перелом / Fracture (Грегори Хоблит, Триллер, драма, криминал, детектив, 200 ...
  • Время / In Time (Эндрю Никкол, фантастика, триллер, криминал, 2011) [DVDRip ...
  • Погоня / Abduction (Джон Синглтон, боевик, триллер, драма, детектив, 2011) ...
  • Время / In Time (Эндрю Никкол, фантастика, триллер, криминал, 2011) [HDRip- ...
  • Помогите Стать Отцом / Not Suitable For Children (Питер Темплмен, Мелодрама ...
  • Время / In Time (Эндрю Никкол, фантастика, триллер, драма, мелодрама, крими ...
  • Заражение / Contagion (Стивен Содерберг, Фантастика, 2011) [BDRip 1080p, Пр ...
  • Время / In Time (Эндрю Никкол, Фантастика, 2011) [BDRip 720p, Дубляж + Ориг ...
  • Время / In Time (Эндрю Никкол, фантастика, триллер, драма, мелодрама, крими ...
  • Время / In Time (Эндрю Никкол, Фантастика, триллер, драма, 2011) [BDRemux 1 ...
  • Время / In Time (Эндрю Никкол, Фантастика, триллер, криминал, 2011) [480x20 ...
  • Время / In Time (Эндрю Никкол, фантастика, триллер, криминал, 2011) [DVD5, ...
  • Время / In Time (Эндрю Никкол, фантастика, триллер, криминал, 2011) [DVDRip ...
  • Время / In Time (Эндрю Никкол, фантастика, триллер, криминал, 2011) [DVDRip ...
  • Время / In Time (Эндрю Никкол, фантастика, триллер, драма, мелодрама, крими ...
  • Время / In Time (Эндрю Никкол, фантастика, триллер, криминал, 2011) [HDRip, ...
  • Время / In Time (Эндрю Никкол, фантастика, триллер, криминал, 2011) [640 x ...
  • Время / In Time (Эндрю Никкол, фантастика, триллер, криминал, 2011) [HDRip, ...
  • Время / In Time (Эндрю Никкол, фантастика, триллер, криминал, 2011) [HDRip, ...
  • Время / In Time (Эндрю Никкол, фантастика, триллер, драма, мелодрама, крими ...
  • Время / In Time (Эндрю Никкол, фантастика, триллер, криминал, 2011) [HDRip, ...
  • Время / In Time (Эндрю Никкол, фантастика, триллер, криминал, 2011) [BDRip, ...
  • Время / In Time (Эндрю Никкол, фантастика, триллер, драма, мелодрама, крими ...
  • Информация
    Посетители, находящиеся в группе Гости, не могут оставлять комментарии к данной публикации.