вход на сайт

Имя пользователя :
Пароль :

Восстановление пароля Регистрация
Дитя человеческое / Children of Men (Альфонсо Куарон, фантастика, триллер, драма, приключения, 2006) [BDRip-AVC, Дубляж + Профессиональный (двухголосый закадровый) + Авторский (Королев) + оригинал]
Рейтинг:
(голосов: 1)



[img]{THEME}/images/logopost.png[/img]



Дитя человеческое / Children of Men

«Год 2027: Последние дни человеческой расы. За 18 лет не родилось ни одного ребёнка. Он должен защитить нашу последнюю надежду.»

Год выпуска: 2006
Страна: США, Великобритания
Производство: Universal Pictures

Жанр: фантастика, триллер, драма, приключения

Режиссёр: Альфонсо Куарон
В ролях: Клайв Оуэн, Джулианна Мур, Майкл Кейн, Чиветель Эджиофор, Чарли Ханнэм, Клэр-Хоуп Эшити, Пэм Феррис, Дэнни Хьюстон, Питер Маллен, Яцек Коман, Пол Шарма, Роб Карлинг, Джон Шевалье, Рита Дейвис, Ким Фентон, Крис Гилберт

Перевод: Профессиональный (полное дублирование) + Профессиональный (двухголосый, П.Гланц и И.Королёва) + Авторский (одноголосый закадровый, Королёв) + оригинал
Субтитры:русские, английские

Описание
2027 год. Мир погряз в анархии, причиной которой стало массовое бесплодие. Над человечеством нависла угроза полного вымирания. Лишенный иллюзий бюрократ превращается в чемпиона гонки на выживание в Лондоне, раздираемом клановыми войнами противоборствующих группировок. Именно он встает на защиту «последней надежды человечества» — беременной женщины, которую надо доставить в безопасное место под присмотр врачей…



Доп. информация

MediaInfo ▼TextFormat : Matroska
File size : 3.66 GiB
Duration : 1h 49mn
Overall bit rate : 4 794 Kbps
Encoded date : UTC 2010-10-26 14:48:11
Writing application : mkvmerge v3.0.0 (Hang up your Hang-Ups) built on Dec 15 2009 20:49:37
Writing library : libebml v0.7.9 + libmatroska v0.8.1
Video
ID : 1
Format : AVC
Format/Info : Advanced Video Codec
Format profile : [email protected]
Format settings, CABAC : Yes
Format settings, ReFrames : 10 frames
Muxing mode : Container [email protected]
Codec ID : V_MPEG4/ISO/AVC
Duration : 1h 49mn
Bit rate : 2 906 Kbps
Nominal bit rate : 3 000 Kbps
Width : 1 152 pixels
Height : 624 pixels
Display aspect ratio : 16:9
Frame rate : 23.976 fps
Resolution : 24 bits
Colorimetry : 4:2:0
Scan type : Progressive
Bits/(Pixel*Frame) : 0.169
Stream size : 2.22 GiB (61%)
Writing library : x264 core 79 r1342kMod e8501ef
Encoding settings : cabac=1 / ref=10 / deblock=1:-2:-1 / analyse=0x3:0x113 / me=umh / subme=10 / psy=1 / psy_rd=1.0:0.2 / mixed_ref=1 / me_range=24 / chroma_me=1 / trellis=2 / 8x8dct=1 / cqm=0 / deadzone=21,11 / chroma_qp_offset=-3 / threads=6 / nr=0 / decimate=0 / mbaff=0 / constrained_intra=0 / bframes=10 / b_pyramid=0 / b_adapt=2 / b_bias=0 / direct=3 / wpredb=1 / wpredp=2 / keyint=250 / keyint_min=25 / scenecut=40 / rc_lookahead=60 / rc=2pass / mbtree=1 / bitrate=3000 / ratetol=1.0 / qcomp=0.60 / qpmin=10 / qpmax=51 / qpstep=4 / cplxblur=20.0 / qblur=0.5 / vbv_maxrate=17500 / vbv_bufsize=14000 / ip_ratio=1.40 / aq=1:1.00
Audio #1
ID : 2
Format : AC-3
Format/Info : Audio Coding 3
Codec ID : A_AC3
Duration : 1h 49mn
Bit rate mode : Constant
Bit rate : 448 Kbps
Channel(s) : 6 channels
Channel positions : Front: L C R, Surround: L R, LFE
Sampling rate : 48.0 KHz
Stream size : 350 MiB (9%)
Title : Дубляж, 5.1 448 kb/s
Language : Russian
Audio #2
ID : 3
Format : AC-3
Format/Info : Audio Coding 3
Codec ID : A_AC3
Duration : 1h 49mn
Bit rate mode : Constant
Bit rate : 448 Kbps
Channel(s) : 6 channels
Channel positions : Front: L C R, Surround: L R, LFE
Sampling rate : 48.0 KHz
Stream size : 350 MiB (9%)
Title : Гланц и Королёва, 5.1 448 kb/s
Language : Russian
Audio #3
ID : 4
Format : AC-3
Format/Info : Audio Coding 3
Codec ID : A_AC3
Duration : 1h 49mn
Bit rate mode : Constant
Bit rate : 448 Kbps
Channel(s) : 6 channels
Channel positions : Front: L C R, Surround: L R, LFE
Sampling rate : 48.0 KHz
Stream size : 350 MiB (9%)
Title : Королёв, 5.1 448 kb/s
Language : Russian
Audio #4
ID : 5
Format : AC-3
Format/Info : Audio Coding 3
Codec ID : A_AC3
Duration : 1h 49mn
Bit rate mode : Constant
Bit rate : 448 Kbps
Channel(s) : 6 channels
Channel positions : Front: L C R, Surround: L R, LFE
Sampling rate : 48.0 KHz
Stream size : 350 MiB (9%)
Title : Оригинал, 5.1 448 kb/s
Language : English
Text
347d5eab47aa5bc6cc88de0c4c77014ece2c84a5Дитя человеческое / Children of Men (Альфонсо Куарон, фантастика, триллер, драма, приключения, 2006) [BDRip-AVC, Дубляж + Профессиональный (двухголосый закадровый) + Авторский (Королев) + оригинал] Дитя человеческое / Children of Men (Альфонсо Куарон, фантастика, триллер, драма, приключения, 2006) [BDRip-AVC, Дубляж + Профессиональный (двухголосый закадровый) + Авторский (Королев) + оригинал] " />

Аплоадер: Админ, дата: 16-01-2012, 00:44, торрент скачан: 359 раз

Понравилась раздача? Посмотрите эти:
  • Дитя человеческое / Children of Men (Альфонсо Куарон, фантастика, триллер, ...
  • Дитя человеческое / Children of Men (Альфонсо Куарон, Фантастика, триллер, ...
  • Дитя человеческое / Children of Men (Альфонсо Куарон, Фантастика, триллер, ...
  • Водитель / The Driver (Уолтер Хилл, Боевик, триллер, драма, криминал, 1978) ...
  • Дитя человеческое / Сhildren of a Men (Альфонсо Куарон) [2006 г., Фантастик ...
  • Дитя Человеческое / Children Of Men (Альфонсо Куарон, фантастика, триллер, ...
  • Дитя человеческое / Children Of Men (Альфонсо Куарон/ Alfonso Cuaron, фанта ...
  • Дитя человеческое / Children of Men (Альфонсо Куарон, фантастика, триллер, ...
  • 28 дней спустя / 28 Days Later (Дэнни Бойл / Danny Boyle,ужасы, фантастика, ...
  • Персонаж / Stranger Than Fiction (Марк Форстер, Комедия, драма, фантастика, ...
  • Команда «А» / The A-Team (Джо Карнахан, боевик, триллер, комедия, приключен ...
  • Вальгалла: Сага о викинге / Valhalla Rising (Николас Виндинг Рёфн, боевик, ...
  • Повторяющие / Repeaters (Карл Бессай, фантастика, боевик, триллер, драма, к ...
  • Дитя Человеческое / Children Of Men (Альфонсо Куарон, фантастика, триллер, ...
  • Роб Рой / Rob Roy (Майкл Кейтон-Джонс, боевик, драма, мелодрама, 1995) [BDR ...
  • Бросок кобры / G.I. Joe: The Rise of Cobra (Стивен Соммерс, фантастика, бое ...
  • Один Дома / Home Alone (Крис Коламбус, комедия, приключения, семейный, 1990 ...
  • Один дома 2: Затерянный в Нью-Йорке / Home Alone 2: Lost in New York (Крис ...
  • Такси 2 / Taxi 2 (Жерар Кравчик, боевик, комедия, криминал, 2000) [BDRip 72 ...
  • Путешествие на край Вселенной / Journey to the Edge of the Universe (Явар А ...
  • Зелёная миля / The Green Mile (Фрэнк Дарабонт , драма, 1999) [BDRip 1080p, ...
  • Викинги / Outlander (Ховард МакКейн, Фантастика, боевик, приключения, 2008) ...
  • Mylene Farmer / Du Temps [2011, Pop, HDTVRip]
  • [EN] Дитя человеческое / Children of Men (Альфонсо Куарон, фантастика, 2006 ...
  • Дитя человеческое / Children of Men (Альфонсо Куарон / Alfonso Cuaron, Фант ...
  • Информация
    Посетители, находящиеся в группе Гости, не могут оставлять комментарии к данной публикации.