вход на сайт

Имя пользователя :
Пароль :

Восстановление пароля Регистрация
Супер 8 / Super 8 (Джей Джей Абрамс , фантастика , триллер , детектив ,2011) [BDRip-AVC,Дублированный + Оригинал + Sub (ENG,RUS)]
Рейтинг:
(голосов: 1)



[img]{THEME}/images/logopost.png[/img]



Супер 8 / Super 8
Cлоган: «It Arrives»

Год выпуска: 2011
Страна: США
Производство: Amblin Entertainment, Bad Robot, Paramount Pictures
Жанр: фантастика, триллер, детектив

Режиссёр: Джей Джей Абрамс
В ролях: Джоэль Кортни, Эль Фаннинг, Райли Гриффитс, Райан Ли, Гэбриел Бассо, Захари Миллс, Кайл Чандлер, Джессика Так, Джоэль МакКиннон Миллер, Рон Элдард

Перевод: Дублированный [лицензия] + Оригинал
Субтитры: Английские,русские (SRT)

Описание: Летом 1979 года несколько друзей из маленького городка в Огайо, снимающие любительский фильм на камеру «Супер 8», стали свидетелями железнодорожной катастрофы. И вскоре они начинают подозревать, что это не было просто несчастным случаем. Странные исчезновения и необъяснимые события начинают происходить в городке, и местный шериф пытается разгадать их тайну — что-то куда более ужасающее, чем все могли себе представить.Rip by: Vaippp

Качество: BDRip-AVC
Продолжительность: 01:51:49

Формат: MKV
Видео кодек: x264
Аудио кодек: AC3
Видео: 1056x440 (2.40:1), 23.976 fps,~2025 kbps avg, 0.182 bit/pixel
Аудио #1: 48 kHz, AC3 Dolby Digital, 3/2 (L,C,R,l,r) + LFE ch, 384 kbps avg|RUS
Аудио #2: 48 kHz, AC3 Dolby Digital, 3/2 (L,C,R,l,r) + LFE ch, 384 kbps avg|ENG

MediaInfo ▼TextGeneral
Unique ID : 240781592104584064143114699745465954538 (0xB524D90B54B31924BC2E9FAD412F70EA)
Complete name : I:OtherSuper.8.2011.DUAL.BDRip-AVC.AC3.-HQ-ViDEO.mkv
Format : Matroska
Format version : Version 2
File size : 2.18 GiB
Duration : 1h 51mn
Overall bit rate : 2 793 Kbps
Movie name : Super 8 / 2011 / Release by Vaippp / HQ-ViDEO
Encoded date : UTC 2011-11-23 06:51:07
Writing application : mkvmerge v5.0.1 (Es ist Sommer) built on Oct 9 2011 11:55:43
Writing library : libebml v1.2.2 + libmatroska v1.3.0

Video
ID : 1
Format : AVC
Format/Info : Advanced Video Codec
Format profile : [email protected]
Format settings, CABAC : Yes
Format settings, ReFrames : 14 frames
Codec ID : V_MPEG4/ISO/AVC
Duration : 1h 51mn
Bit rate : 2 025 Kbps
Width : 1 056 pixels
Height : 440 pixels
Display aspect ratio : 2.40:1
Frame rate : 23.976 fps
Color space : YUV
Chroma subsampling : 4:2:0
Bit depth : 8 bits
Scan type : Progressive
Bits/(Pixel*Frame) : 0.182
Stream size : 1.54 GiB (71%)
Title : BDRip 23/11/2011
Writing library : x264 core 119 r2106 07efeb4
Encoding settings : cabac=1 / ref=14 / deblock=1:-2:-1 / analyse=0x3:0x113 / me=umh / subme=10 / psy=1 / psy_rd=0.95:0.00 / mixed_ref=1 / me_range=40 / chroma_me=1 / trellis=2 / 8x8dct=1 / cqm=0 / deadzone=21,11 / fast_pskip=0 / chroma_qp_offset=-1 / threads=12 / sliced_threads=0 / nr=0 / decimate=1 / interlaced=0 / bluray_compat=0 / constrained_intra=0 / bframes=16 / b_pyramid=2 / b_adapt=2 / b_bias=0 / direct=3 / weightb=1 / open_gop=0 / weightp=2 / keyint=250 / keyint_min=23 / scenecut=40 / intra_refresh=0 / rc_lookahead=150 / rc=2pass / mbtree=1 / bitrate=2025 / ratetol=1.0 / qcomp=0.70 / qpmin=0 / qpmax=69 / qpstep=4 / cplxblur=20.0 / qblur=0.5 / vbv_maxrate=40000 / vbv_bufsize=30000 / nal_hrd=none / ip_ratio=1.40 / aq=2:1.00 / zones=148946,160847,b=0.4
Language : English
Default : Yes
Forced : No
Matrix coefficients : BT.709-5, BT.1361, IEC 61966-2-4 709, SMPTE RP177

Audio #1
ID : 2
Format : AC-3
Format/Info : Audio Coding 3
Mode extension : CM (complete main)
Codec ID : A_AC3
Duration : 1h 51mn
Bit rate mode : Constant
Bit rate : 384 Kbps
Channel(s) : 6 channels
Channel positions : Front: L C R, Side: L R, LFE
Sampling rate : 48.0 KHz
Bit depth : 16 bits
Compression mode : Lossy
Stream size : 307 MiB (14%)
Title : DUB @ R5
Language : Russian
Default : Yes
Forced : Yes
&
091fdfba3812737f62e69106b49265bf9f4bdc84Супер 8 / Super 8 (Джей Джей Абрамс , фантастика , триллер , детектив ,2011) [BDRip-AVC,Дублированный + Оригинал + Sub (ENG,RUS)] Супер 8 / Super 8 (Джей Джей Абрамс , фантастика , триллер , детектив ,2011) [BDRip-AVC,Дублированный + Оригинал + Sub (ENG,RUS)] " />

Аплоадер: Админ, дата: 7-12-2011, 23:57, торрент скачан: 359 раз

Понравилась раздача? Посмотрите эти:
  • Пастырь / Priest (Скотт Чарльз Стюарт, ужасы, фантастика, боевик, триллер, ...
  • [3D] Стартрек: Возмездие / Star Trek Into Darkness (Джей Джей Абрамс / J.J. ...
  • Стартрек: Возмездие / Star Trek Into Darkness (Джей Джей Абрамс, фантастика ...
  • Убить по расписанию / Ticking Clock (Эрни Барбараш, фантастика, боевик, три ...
  • Супер 8 / Super 8 (Джей Джей Абрамс, фантастика, триллер, детектив, 2011) [ ...
  • Супер 8 / Super 8 (Джей Джей Абрамс, фантастика, триллер, детектив, 2011) [ ...
  • Ковбои против пришельцев / Cowboys & Aliens(Джон Фавро, фантастика, боевик, ...
  • Кориолан / Coriolanus (Рэйф Файнс, триллер, драма, 2011) [BDRip-AVC, Дубли ...
  • Супер 8 / Super 8 (Джей Джей Абрамс, Фантастика, триллер, детектив, 2011) [ ...
  • Первый мститель / Captain America: The First Avenger (Джо Джонстон , фантас ...
  • Неизвестный / Unknown (Жауме Серра / Jaume Collet-Serra, триллер, драма, де ...
  • Кунг-фу Панда 2 / Kung Fu Panda 2 (Дженнифер Ю, мультфильм, боевик, комеди ...
  • Супер 8 / Super 8 (Джей Джей Абрамс, Фантастика, 2011) [BDRip 1080p, Дубляж ...
  • Mylene Farmer / Du Temps [2011, Pop, HDTVRip]
  • Mylene Farmer / Bleu Noir [2011, Pop, HDTVRip]
  • Супер 8 / Super 8 (Джей Джей Абрамс , фантастика , триллер , детектив , 201 ...
  • Супер 8 / Super 8 (Джей Джей Абрамс,фантастика,триллер,детектив,2011) [480 ...
  • Супер 8 | Super 8 (Джей Джей Абрамс, фантастика, триллер, детектив, 2011) [ ...
  • Супер 8 / Super 8 (Джей Джей Абрамс , фантастика , триллер , детектив , 201 ...
  • Профессионал / Killer Elite (Гэри МакКендри, боевик, триллер, криминал, 201 ...
  • Информация
    Посетители, находящиеся в группе Гости, не могут оставлять комментарии к данной публикации.