вход на сайт

Имя пользователя :
Пароль :

Восстановление пароля Регистрация
Класс 1999 года / Class of 1999 (Марк Л. Лестер, ужасы, фантастика, боевик, 1990) [DVDRip-AVC, Профессиональный (двухголосый закадровый) + Авторский (одноголосый закадровый) + Оригинал]
Рейтинг:
(голосов: 1)



[img]{THEME}/images/logopost.png[/img]



Класс 1999 года / Class of 1999

Слоган: «Последний урок в твоей жизни»

Год выпуска: 1990
Страна: США
Производство: Lightning Pictures
Жанр: Ужасы, фантастика, боевик

Режиссёр: Марк Л. Лестер
В ролях: Брэдли Грегг, Трейси Линд, Малкольм Мак Дауэлл, Стейси Кич, Пэтрик Килпэтрик, Пэм Гриер, Джон П.Райан, Даррен Э. Берроуз, Джошуа Джон Миллер, Шарон Виатт

Перевод 1: Авторский (одноголосый закадровый) - П.Санаев
Перевод 2: Профессиональный (двухголосый закадровый)
Субтитры: Нет

Описание:
Время действия — 1999 год. В школах и вузах США — полный беспредел, творимый молодежными бандами. Департамент Обороны Образования, отчаявшись навести дисциплину в Высшей школе Кеннеди решает воспользоваться услугами фирмы «Мегатек», работавшей на оборону и продолжающей вести разработку различных моделей роботов, в том числе учителей-киборгов.
Три электронных учителя, прибывшие в школу, моментально звереют от общения со своими студентами и начинают безжалостное смертельное сражение «за успеваемость и посещаемость». На этот раз юные бандиты находят себе равных противников.



Сэмпл

Детям до 13 лет просмотр не желателен

Дополнительная информация ▼Премьера (мир): 11 мая 1990
Релиз на DVD: 18 марта 2010, «Вольга»

Бюджет: $5 200 000
Сборы в США: $2 459 895

Качество: DVDRip-AVC - рип с DVD5 16:9
Продолжительность: 01:32:20

Формат: MKV
Видео кодек: H.264
Аудио кодек: AC3
Видео: 716x576 @ 1018x576 (1.77:1), 23.976 fps, [email protected] ~1819 kbps avg, 0.176 bit/pixel
Аудио.1: 48 kHz, Audio Coding 3, 2ch (Front: L R), 224.00 kbps avg П.Санаев
Аудио.2: 48 kHz, MPEG Layer 3, 2ch (Front: L R), 128.00 kbps avg Двухголосый
Аудио.3: 48 kHz, Audio Coding 3, 2ch (Front: L R), 128.00 kbps avg Оригинал
MediaInfo ▼Format : Matroska
Format version : Version 2
File size : 1.54 GiB
Duration : 1h 32mn
Overall bit rate : 2 388 Kbps
Encoded date : UTC 2011-11-23 15:36:37
Writing application : mkvmerge v5.0.1 (Es ist Sommer) built on Nov 6 2011 16:23:40
Writing library : libebml v1.2.2 + libmatroska v1.3.0

Video
ID : 1
Format : AVC
Format/Info : Advanced Video Codec
Format profile : [email protected]
Format settings, CABAC : Yes
Format settings, ReFrames : 8 frames
Format settings, GOP : M=2, N=10
Codec ID : V_MPEG4/ISO/AVC
Duration : 1h 32mn
Bit rate : 1 810 Kbps
Width : 716 pixels
Height : 576 pixels
Display aspect ratio : 16:9
Original display aspect ratio : 16:9
Frame rate : 25.000 fps
Color space : YUV
Chroma subsampling : 4:2:0
Bit depth : 8 bits
Scan type : Progressive
Bits/(Pixel*Frame) : 0.176
Stream size : 1.14 GiB (74%)
Title : Класс 1999 [1990, DVDRip-AVC] || big1987
Writing library : x264 core 116 r2019 9cc407d
Encoding settings : cabac=1 / ref=8 / deblock=1:-2:-2 / analyse=0x3:0x133 / me=umh / subme=9 / psy=1 / psy_rd=1.00:0.20 / mixed_ref=1 / me_range=24 / chroma_me=1 / trellis=2 / 8x8dct=1 / cqm=0 / deadzone=21,11 / fast_pskip=1 / chroma_qp_offset=-3 / threads=6 / sliced_threads=0 / nr=0 / decimate=1 / interlaced=0 / bluray_compat=0 / constrained_intra=0 / bframes=4 / b_pyramid=2 / b_adapt=2 / b_bias=0 / direct=3 / weightb=1 / open_gop=0 / weightp=2 / keyint=250 / keyint_min=25 / scenecut=40 / intra_refresh=0 / rc_lookahead=60 / rc=2pass / mbtree=1 / bitrate=1810 / ratetol=1.0 / qcomp=0.60 / qpmin=0 / qpmax=69 / qpstep=4 / cplxblur=20.0 / qblur=0.5 / ip_ratio=1.40 / aq=1:1.00
Language : English

Audio #1
ID : 2
Format : AC-3
Format/Info : Audio Coding 3
Format profile : Dolby Digital
Mode extension : CM (complete main)
Codec ID : A_AC3
Duration : 1h 32mn
Bit rate mode : Constant
Bit rate : 224 Kbps
Channel(s) : 2 channels
Channel positions : Front: L R
Sampling rate : 48.0 KHz
Bit depth : 16 bits
Compression mode : Lossy
Stream size : 148 MiB (9%)
Title : AVO {Санаев} [AC3 [email protected]]
Language : Russian

Audio #2
ID : 3
Format : MPEG Audio
Format version : Version 1
Format profile : Layer 3
d888dceecef1230d338eb9b7cee91e7e52d76f67Класс 1999 года / Class of 1999 (Марк Л. Лестер, ужасы, фантастика, боевик, 1990) [DVDRip-AVC, Профессиональный (двухголосый закадровый) + Авторский (одноголосый закадровый) + Оригинал] Класс 1999 года / Class of 1999 (Марк Л. Лестер, ужасы, фантастика, боевик, 1990) [DVDRip-AVC, Профессиональный (двухголосый закадровый) + Авторский (одноголосый закадровый) + Оригинал] " />

Аплоадер: Админ, дата: 25-11-2011, 22:33, торрент скачан: 359 раз

Понравилась раздача? Посмотрите эти:
  • Discovery: Идеальный путеводитель. Змеи / Discovery: Ultimate Guide. Snakes ...
  • Ордер на смерть / Death warrant (Деран Сарафян, Боевик, драма, криминал, де ...
  • Властелин измерений / Grande ourse - La cle des possibles (Патрис Сов, фант ...
  • Под откос / Derailed (Боб Мисиоровски, боевик, триллер, 2002) [HDRip-AVC, П ...
  • Поворот не туда 4 / Wrong Turn 4 (Деклан О’Брайэн, ужасы, боевик, детектив, ...
  • Репортаж из преисподней / [REC] 2 (Жауме Балагуэро, Пако Пласа, ужасы, трил ...
  • Остановка 2: Не оглядывайся назад / Rest Stop: Dont Look Back (Шоун Папазян ...
  • Остановка / Rest Stop: Dead Ahead (Джон Шибан, ужасы, триллер, 2006) [BDRip ...
  • Пир / Feast (Джон Гулажер, ужасы, боевик, триллер, комедия, 2005) [BDRip-AV ...
  • Видение / Dreamscape (Джозеф Рубен, ужасы, фантастика, триллер, приключения ...
  • Три короля / Three Kings (Дэвид О. Расселл / David O. Russell, боевик, драм ...
  • Спаун / Отродие / Spawn (Марк Э. З. Диппе, фэнтези, боевик, триллер, 1997) ...
  • Звонок 0: Рождение / Ringu 0: Bâsudei (Норио Тцурута, ужасы, 1999) [BDRip- ...
  • Пришелец / Impostor (Гэри Фледер, фантастика, боевик, триллер, драма, 2001) ...
  • Повторяющие / Repeaters (Карл Бессай, фантастика, боевик, триллер, драма, к ...
  • Пожизненно / Life (Тед Демме, драма, комедия, криминал, 1999) [BDRip-AVC, П ...
  • Пятница 13-е / Friday the 13th (Шон С. Каннингэм, ужасы, триллер, детектив, ...
  • Охота за "Красным Октябрём" / The Hunt for "Red October" (Джон МакТирнан, б ...
  • Пятница 13-е Часть III / Friday the 13th Part III (Стив Майнер, ужасы, трил ...
  • Любимые / The Loved Ones (Шон Бирн, ужасы, триллер, драма, 2009) [BDRip-AVC ...
  • Пудра / Powder (Виктор Сальва, фантастика, фэнтези, драма, 1995) [HDTVRip 7 ...
  • Викинги / Outlander (Ховард МакКейн, Фантастика, боевик, приключения, 2008) ...
  • Mylene Farmer / Du Temps [2011, Pop, HDTVRip]
  • Класс 1999 / Class of 1999 [1990, Ужасы, Фантастика, Боевик, Фэнтези, Драма ...
  • СчастливоСпасибоЕщеПожалуйста / HappyThankYouMorePlease (Джош Рэднор / Josh ...
  • Информация
    Посетители, находящиеся в группе Гости, не могут оставлять комментарии к данной публикации.