вход на сайт

Имя пользователя :
Пароль :

Восстановление пароля Регистрация
Первый мститель / Captain America: The First Avenger (Джо Джонстон,фантастика,боевик,триллер,приключения ,2011) [BDRip-AVC, Дубляж + Оригинал]
Рейтинг:
(голосов: 1)



[img]{THEME}/images/logopost.png[/img]



Первый мститель | Captain America: The First Avenger
«When patriots become heroes»

Год выпуска: 2011
Страна: США
Производство: Marvel Enterprises,Marvel Entertainment,Marvel Studios Inc.
Жанр: Фантастика, боевик, триллер, приключения

Режиссёр: Джо Джонстон
В ролях: Крис Эванс, Хейли Этвелл, Себастиан Стэн, Томми Ли Джонс, Хьюго Уивинг, Доминик Купер, Ричард Армитэдж, Стенли Туччи, Сэмюэл Л. Джексон, Тоби Джонс

Перевод: Дубляж + Оригинальная звуковая дорожка (отдельно)
Субтитры: Отсутствуют

Описание:
Стив Роджерс добровольно соглашается принять участие в эксперименте, который превратит его в супер солдата, известного как Первый мститель. Роджерс вступает в вооруженные силы США вместе с Баки Барнсом и Пегги Картер, чтобы бороться с враждебной организацией ГИДРА, которой управляет безжалостный Красный Череп



Качество: BDRip-AVC Сравнение
Продолжительность: 02:04:11

Формат: MKV
Видео кодек: x264
Аудио кодек: AC3
Видео: 1280x536 (2.35:1), 23.976 fps,~2069 kbps, 0.126 bits/pixel
Аудио #1: 48.0 KHz, AC3, 6 ch, 448 kbps|DUB
Аудио #2: 48.0 KHz, AC3, 6 ch, 448 kbps|ENG - отдельно
Media Info ▼TextComplete name : L:Cap America.chopper887Cap America.mkv
Format : Matroska
File size : 2.18 GiB
Duration : 2h 4mn
Overall bit rate : 2 518 Kbps
Movie name : Cap America.chopper887
Encoded date : UTC 2011-10-18 14:54:32
Writing application : mkvmerge v4.8.0 (I Got The...) built on May 24 2011 03:12:58
Writing library : libebml v1.2.0 + libmatroska v1.1.0

Video
ID : 1
Format : AVC
Format/Info : Advanced Video Codec
Format profile : [email protected]
Format settings, CABAC : Yes
Format settings, ReFrames : 10 frames
Codec ID : V_MPEG4/ISO/AVC
Duration : 2h 4mn
Bit rate : 2 069 Kbps
Width : 1 280 pixels
Height : 536 pixels
Display aspect ratio : 2.35:1
Frame rate : 23.976 fps
Color space : YUV
Chroma subsampling : 4:2:0
Bit depth : 8 bits
Scan type : Progressive
Bits/(Pixel*Frame) : 0.126
Stream size : 1.75 GiB (80%)
Title : Cap America.chopper887
Writing library : x264 core 116 r2074 2641b9e
Encoding settings : cabac=1 / ref=10 / deblock=1:-2:-1 / analyse=0x3:0x133 / me=umh / subme=10 / psy=1 / psy_rd=0.95:0.00 / mixed_ref=1 / me_range=32 / chroma_me=1 / trellis=2 / 8x8dct=1 / cqm=0 / deadzone=21,11 / fast_pskip=0 / chroma_qp_offset=-2 / threads=3 / sliced_threads=0 / nr=0 / decimate=1 / interlaced=0 / bluray_compat=0 / constrained_intra=0 / bframes=8 / b_pyramid=2 / b_adapt=2 / b_bias=0 / direct=3 / weightb=1 / open_gop=0 / weightp=2 / keyint=250 / keyint_min=23 / scenecut=40 / intra_refresh=0 / rc_lookahead=70 / rc=2pass / mbtree=1 / bitrate=2069 / ratetol=1.0 / qcomp=0.70 / qpmin=0 / qpmax=69 / qpstep=4 / cplxblur=20.0 / qblur=0.5 / ip_ratio=1.40 / aq=1:1.00
Language : English

Audio
ID : 2
Format : AC-3
Format/Info : Audio Coding 3
Mode extension : CM (complete main)
Codec ID : A_AC3
Duration : 2h 4mn
Bit rate mode : Constant
Bit rate : 448 Kbps
Channel(s) : 6 channels
Channel positions : Front: L C R, Side: L R, LFE
Sampling rate : 48.0 KHz
Bit depth : 16 bits
Compression mode : Lossy
Stream size : 398 MiB (18%)
Title : Дубляж

Text
ID : 3
Format : UTF-8
Codec ID : S_TEXT/UTF8
Codec ID/Info : UTF-8 Plain Text
Title : Русские

премьера (мир) - 22 июля 2011
премьера (РФ) - 28 июля 2011, «Централ Партнершип»
релиз на DVD - 14 февраля 2012, «Флагман-Трейд»


Стол заказов POWER | Отзывы | Вступление в POWER


ff64da50c034b374520b1afd1493856eb0fe5243Первый мститель / Captain America: The First Avenger (Джо Джонстон,фантастика,боевик,триллер,приключения ,2011) [BDRip-AVC, Дубляж + Оригинал] Первый мститель / Captain America: The First Avenger (Джо Джонстон,фантастика,боевик,триллер,приключения ,2011) [BDRip-AVC, Дубляж + Оригинал] " />

Аплоадер: Админ, дата: 24-10-2011, 15:59, торрент скачан: 359 раз

Понравилась раздача? Посмотрите эти:
  • [Трейлер] Первый мститель: Другая война / Captain America: The Winter Soldi ...
  • America Sierra feat. 3BallMTY / Porque El Amor Manda [2013, Dance, Tribal, ...
  • Первый мститель / Captain America: The First Avenger (Джо Джонстон, Фантаст ...
  • [3D] Первый мститель / Captain America: The First Avenger (Джо Джонстон / J ...
  • Первый мститель / Captain America: The First Avenger (Джо Джонстон, Фантаст ...
  • Убить по расписанию / Ticking Clock (Эрни Барбараш, фантастика, боевик, три ...
  • Первый мститель / Captain America: The First Avenger (Джо Джонстон,фантасти ...
  • Первый мститель / Captain America: The First Avenger (Джо Джонстон, Фэнтези ...
  • Первый мститель / Captain America: The First Avenger (Джо Джонстон , фантас ...
  • Первый мститель / Captain America: The First Avenger (Джо Джонстон / Фантас ...
  • Первый мститель / Captain America: The First Avenger (Джо Джонстон , фантас ...
  • Исходный код / Source Code (Дункан Джонс, Фантастика, боевик, триллер, драм ...
  • [3D] Первый мститель 3Д / Captain America: The First Avenger 3D (Джо Джонст ...
  • Исходный код / Source Code (Дункан Джонс, фантастика, боевик, триллер, 2011 ...
  • Первый мститель / Captain America: The First Avenger (Джо Джонстон, Фэнтези ...
  • Дети шпионов 4D / Spy Kids: All the Time in the World in 4D (Роберт Родриге ...
  • Первый мститель / Captain America: The First Avenger (Джо Джонстон, фантаст ...
  • Первый мститель / Captain America: The First Avenger (Джо Джонстон,фантасти ...
  • Первый мститель / Captain America: The First Avenger (Джо Джонстон,фантасти ...
  • Первый мститель / Captain America: The First Avenger (Джо Джонстон, Фантаст ...
  • Первый мститель / Captain America: The First Avenger (Джо Джонстон, фантаст ...
  • [3D] Капитан америка: Первый мститель / Captain America: The First Avenger ...
  • Первый мститель / Captain America: The First Avenger (Джо Джонстон, фантаст ...
  • [3D] Первый мститель 3D / Captain America: The First Avenger 3D (Джо Джонст ...
  • Первый мститель / Captain America: The First Avenger (Джо Джонстон, Фантаст ...
  • Информация
    Посетители, находящиеся в группе Гости, не могут оставлять комментарии к данной публикации.