вход на сайт

Имя пользователя :
Пароль :

Восстановление пароля Регистрация
Ариэль (Евгений Котов, фантастика, 1992) [DVDRip, Не требуется]
Рейтинг:
(голосов: 1)



[img]{THEME}/images/logopost.png[/img]



Ариэль

Год выпуска: 1992
Страна: Россия, Украина
Производство: Ariel, Азот, Роскомкино
Жанр: фантастика

Режиссёр: Евгений Котов
В ролях: Андрей Сухов, Ольга Кабо, Альберт Филозов, Арнис Лицитис, Улдис Вейспал, Валерий Смецкой, Александр Филатов, Владимир Круглов

Перевод: Не требуется
Субтитры: Отсутствуют

Описание:
За высокими стенами старого индийского монастыря некие дельцы организовали закрытую школу оккультных наук. Самый способный ученик — юноша Ариэль — обладающий способностями к левитации, однажды решает бежать из неволи. Но на него начинается охота…


Дополнительно:
MediaInfo ▼Text
Общее
Полное имя :L:Ариэль.1992Ариэль.avi
Формат :AVI
Размер :1.08 GiB
Продолжительность :01:16:29.200
Общий поток :2 018 Kbps
Программа кодирования :Lavf52.33.0
Библиотека кодирования :VirtualDub build 32817/release

Видео
Идентификатор :0
Формат :MPEG-4 Visual
Идентификатор кодека :DIV3
Продолжительность :1h 16mn 29s 200ms
Битрейт :1 817 Kbps
Ширина :720 pixels
Высота :384 pixels
Соотношение сторон :1.875
Частота кадров :25.000 fps
Глубина цвета :8 bits
Цветовое пространство :YUV
Бит/(Пиксели*Кадры) :0.263
Размер потока :994 MiB (90%)

Аудио #1
Идентификатор :1
Формат :AC-3
Формат/Информация :Audio Coding 3
Идентификатор кодека :2000
Продолжительность :01:15:59.232
Вид битрейта :Constant
Битрейт :192 Kbps
Канал(ы) :2 channels
Расположение каналов :Front: L R
Частота :48.0 KHz
Битовая глубина :16 bits
Метод сжатия :Lossy
Размер потока :104 MiB (9%)Тех. данные:
Качество:DVDRip
Продолжительность:01:16:20 час

Формат: AVI
Видео кодек:
Аудио кодек: AC3
Видео: 720 x 384 (1.875), 25.000 fps, 1 817 Kbps, 0.263 bit/pixel
Аудио : 48.0 KHz, Audio Coding 3, 2 channels (Front: L R), 192 Kbps



c05532c683b10fb9df1ca24335d7691cb1646287Ариэль (Евгений Котов, фантастика, 1992) [DVDRip, Не требуется] Ариэль (Евгений Котов, фантастика, 1992) [DVDRip, Не требуется] " />

Аплоадер: Админ, дата: 15-04-2013, 19:13, торрент скачан: 359 раз

Понравилась раздача? Посмотрите эти:
  • Не ходите, девки, замуж (Евгений Герасимов, мюзикл, комедия, 1985) [DVDRip, ...
  • Дорога (Александр Столпер, боевик, 1955) [DVDRip, Не требуется]
  • Таинственная находка (Борис Бунеев, детский, приключения, 1954) [DVDRip, Не ...
  • Конец "Сатурна" (Виллен Азаров, Мосфильм, 1967) [DVDRip, Не требуется]
  • Приключения Толи Клюквина (Виктор Эйсымонт, комедия, семейный, 1964) [DVDRi ...
  • Гиперболоид инженера Гарина (Александр Гинцбург, фантастика, 1965) [DVDRip, ...
  • Игра мимо нот (Евгений Соколов, Комедия, 2005) [DVDRip, Не требуется]
  • Иваново детство (Андрей Тарковский, драма, военный, 1962) [DVDRip, Не требу ...
  • Опекун (Эдгар Ходжикян, Альберт С. Мкртчян, комедия, 1970) [DVDRip, Не треб ...
  • Ночные забавы (2 части из 2. Реставрирован) (Владимир Краснопольский, Валер ...
  • Маленький гигант большого секса (Николай Досталь, Комедия, 1992) [DVDRip, Н ...
  • Левша (Сергей Овчаров, драма, комедия, 1986) [DVDRip, Не требуется]
  • Крепостная актриса (Роман Тихомиров, мюзикл, 1964) [DVDRip, Не требуется]
  • Тартюф (Ян Фрид, комедия, 1992) [DVDRip, Не требуется]
  • Царевич Проша (Надежда Кошеверова, фэнтези, семейный, 1947) [DVDRip, Не тре ...
  • Рай под тенью сабель (Ислам Казиев, боевик, биография, история, 1992) [DVDR ...
  • Карусель (Михаил Швейцер, комедия, 1970) [DVDRip, Не требуется]
  • Бабушки надвое сказали (Валерий Харченко, Юрий Клебанов, комедия, 1979) [DV ...
  • Таинственный остров (Эдуард Пенцлин, фантастика, приключения, семейный, 194 ...
  • Сотрудник ЧК (Борис Волчек, боевик, история, 1963) [DVDRip, Не требуется]
  • Служили два товарища (Евгений Карелов, драма, комедия, военный, 1968) [DVDR ...
  • Донская повесть (Владимир Фетин, драма, 1964) [DVDRip, Не требуется]
  • Лермонтов (Альберт Гендельштейн, драма, биография, 1943) [DVDRip, Не требу ...
  • Комедия строгого режима (Михаил Григорьев, Владимир Студенников, Комедия, 1 ...
  • К Черному морю (Андрей Тутышкин, мелодрама, комедия, 1957) [DVDRip, Не треб ...
  • Информация
    Посетители, находящиеся в группе Гости, не могут оставлять комментарии к данной публикации.