вход на сайт

Имя пользователя :
Пароль :

Восстановление пароля Регистрация
Миссия «Серенити» / Serenity (Джосс Уидон, Фантастика, боевик, триллер, приключения, 2005) [BDRip, Авторский (одноголосый, закадровый) [Василий Горчаков]
Рейтинг:
(голосов: 1)



[img]{THEME}/images/logopost.png[/img]



Миссия Серенити / Serenity
«Хорошие, плохие, злые»


Год выпуска: 2005
Страна: США
Производство: Universal Pictures
Жанр: Фантастика, боевик, триллер, приключения

Режиссёр: Джосс Уэдон
В ролях: Натан Филлион, Джина Торрес, Алан Тьюдик, Морена Баккарин, Адам Болдуин, Джевел Стэйт, Шон Мехер, Саммер Гло, Рон Гласс, Чиветель Эджиофор, Дэвид Крумхольц, Майкл Хичкок, Сара Полстон

Перевод: Авторский (одноголосый, закадровый) [Василий Горчаков]
Субтитры: Отсутствуют

Описание: Космический «морской волк» и ветеран Гражданской Галактической войны Малькольм «Мэл» Рейнольдс — теперь всего лишь капитан транспортного корабля. Когда они взяли на борт пассажиров — молодого доктора и его странную сестру с телепатическими способностями, ни он, ни его товарищи не предполагали, в какую историю ввяжутся. Спасаясь сразу от нескольких могущественных врагов — и от военных сил тоталитарного Вселенского Альянса, и от ужасных каннибалов Жнецов, команда корабля даже не догадывалась, какая угроза скрывается на борту «Серенити».



Релиз от:
Автор рипа: VremeniNet

Качество: BDRip
Продолжительность: 01:59:02 час.

Формат: AVI
Видео кодек: Xvid
Аудио кодек: AC3
Видео: 720x304 (2.37:1), 23.976 fps, XviD build 65 ~1351 kbps avg, 0.26 bit/pixel
Аудио: 48 kHz, AC3 Dolby Digital, 3/2 (L,C,R,l,r) + LFE ch, ~384 kbps

Дата премьеры (мир): 22 августа 2005
Дата премьеры (РФ): 13 октября 2005, «UIP»

"MediaInfo" ▼Общее
Полное имя : H:Sereniti.1.46Sereniti.2005.BDRip.AVOGorchakov.[All.Films].avi
Формат : AVI
Формат/Информация : Audio Video Interleave
Размер файла : 1,45 Гбайт
Продолжительность : 1 ч. 59 м.
Общий поток : 1745 Кбит/сек
Название фильма : Sereniti.2005.BDRip.AVOGorchakov.[All.Films]
Режиссёр : VremeniNet
Программа кодирования : VirtualDubMod 1.5.10.3 | www.virtualdub-fr.org || (build 2550/release)
Правообладатель : [rutracker.org]

Видео
Идентификатор : 0
Формат : MPEG-4 Visual
Профиль формата : Advanced [email protected]
Параметр BVOP формата : 1
Параметр QPel формата : Нет
Параметр GMC формата : Без точки перехода
Параметр матрицы формата : Выборочная
Идентификатор кодека : XVID
Идентификатор кодека/Подсказка : XviD
Продолжительность : 1 ч. 59 м.
Битрейт : 1351 Кбит/сек
Ширина : 720 пикселей
Высота : 304 пикселя
Соотношение сторон : 2,35:1
Частота кадров : 23,976 кадра/сек
Цветовое пространство : YUV
Субдискретизация насыщенности : 4:2:0
Битовая глубина : 8 бит
Тип развёртки : Прогрессивная
Метод сжатия : С потерями
Бит/(Пиксели*Кадры) : 0.257
Размер потока : 1,12 Гбайт (77%)
Библиотека кодирования : XviD 65

Аудио
Идентификатор : 1
Формат : AC-3
Формат/Информация : Audio Coding 3
Расширение режима : CM (complete main)
Параметр Endianness формата : Big
Идентификатор кодека : 2000
Продолжительность : 1 ч. 59 м.
Вид битрейта : Постоянный
Битрейт : 384 Кбит/сек
Каналы : 6 каналов
Расположение каналов : Front: L C R, Side: L R, LFE
Частота : 48,0 КГц
Битовая глубина : 16 бит
Метод сжатия : С потерями
Размер потока : 327 Мбайт (22%)
Выравнивание : Разделение по промежуткам
Продолжительность промежутка : 42 мс. (1,00 видеокадр)
Время предзагрузки промежутка : 500 мс.





7ffc1d24d41d3d0da5115253967894870dbf5d12Миссия «Серенити» / Serenity (Джосс Уидон, Фантастика, боевик, триллер, приключения, 2005) [BDRip, Авторский (одноголосый, закадровый) [Василий Горчаков] Миссия «Серенити» / Serenity (Джосс Уидон, Фантастика, боевик, триллер, приключения, 2005) [BDRip, Авторский (одноголосый, закадровый) [Василий Горчаков] " />

Аплоадер: Админ, дата: 1-05-2013, 23:12, торрент скачан: 359 раз

Понравилась раздача? Посмотрите эти:
  • Бойфренд из будущего / About Time (Ричард Кёртис, Фантастика, драма, комеди ...
  • Одноклассники 2 / Grown Ups 2 (Деннис Дуган, Комедия, 2013) [BDRip, Професс ...
  • В постели с вампиром / To Sleep with a Vampire (Адам Фридман, Ужасы, трилле ...
  • Шоу Трумана / The Truman Show (Питер Уир, Фантастика, драма, комедия, 1998) ...
  • Светлячок / Firefly // Сезон 1, эпизоды с 1 по 15 (из 15) (фантастика, при ...
  • Миссия «Серенити» / Serenity (Джосс Уидон, фантастика, боевик, триллер, при ...
  • Жил-был тигр / Ek Tha Tiger (Кабир Кхан, боевик, триллер , 2012) [ HDRip, ...
  • Миссия "Серенити" / Serenity (Джосс Уэдон, Фантастика, боевик, триллер, при ...
  • Боец из трущоб / Gutter King (Кейт Алан Моррис / Keith Alan Morris, боевик, ...
  • Миссия «Серенити» / Serenity (Джосс Уидон / Joss Whedon,фантастика, боевик, ...
  • Светлячок / Firefly // Сезон 1, эпизоды с 1 по 14 (из 14) (Джосс Уидон, Тим ...
  • Миссия «Серенити» / Serenity (Джосс Уидон, фантастика, боевик, триллер, при ...
  • Миссия Серенити / Serenity(Джосс Уэдон,Фантастика, 2005) [BDRip 1080р,Профе ...
  • Черная Маска / Black Mask (Дэниэл Ли, фантастика, боевик, триллер, комедия, ...
  • Миссия Серенити / Serenity (Джосс Уэдон, фантастика, боевик, триллер, прикл ...
  • Миссия «Серенити» / Serenity (Джосс Уидон, фантастика, боевик, триллер, при ...
  • Миссия «Серенити» / Serenity (Джосс Уэдон, фантастика, боевик, триллер, при ...
  • Тор / Thor (Кеннет Брэна, Джосс Уидон, фэнтези, боевик, приключения, 2011) ...
  • Мстители / The Avengers (Джосс Уидон, фантастика, боевик, триллер,2012) [DV ...
  • Миссия Серенити / Serenity (Джосс Уэдон, фантастика, боевик, 2005) [BD Remu ...
  • Информация
    Посетители, находящиеся в группе Гости, не могут оставлять комментарии к данной публикации.